Как избежать наказания за убийство / How to Get Away with Murder / Сезон: 1 /Серия 1-5 из 13 (Билл Д’Элиа, Лора Иннес, Майк Листо) [2014 г., Драма, криминал, детектив, триллер, WEB-DL 720p] (Невафильм) (обновляемая)

Ответить на тему
 
Автор
Сообщение

awk05 ®

Пол:

Стаж: 5 лет 10 месяцев

Сообщений: 1352

Репутация: 275 [+] [-]

Откуда: Западная Украина Ривне

Пост 08-Ноя-2014 18:31

[Цитировать] 

--Как избежать наказания за убийство / How to Get Away with Murder-- Год выпуска: 2014
Страна: США
Жанр: Драма, криминал, детектив, триллер
Сезон/Серия: Сезон: 1 / Серия 1-5 из 13
Продолжительность: 13 х ~00:43:00 серия
Перевод: Дублированный
Озвучка / Автор перевода:- Невафильм
Субтитры: отсутствуют--Режиссёр: Билл Д’Элиа, Лора Иннес, Майк Листо--Актеры: Виола Дэвис, Чарли Вебер, Карен Кабрера, Билли Браун, Альфред Энок, Джек Фалахи, Кэти Финдлей, Аджа Наоми Кинг, Карла Соуса и др.--Описание фильма: Захватывающий криминальный триллер о группе амбициозных студентов юридического университета и их блестящем и загадочном профессоре Эннализ Китинг. Её курс «Как избежать наказания за убийство» предполагает глубокое изучение мира юриспруденции — на практике, а не в теории. Все они — будущие адвокаты и их преподаватель — оказываются вовлечены в расследование запутанного убийства, которое потрясёт весь университет и изменит их жизнь.--Качество видео:WEB-DL 720p
Формат видео: MKV
Видео кодек: AVC (High@L3.1)
Аудио кодек: AC-3
Видео: AVC, 1280x720 (16:9), 23.976 fps, MPEG4 AVC ~3929 Kbps, ~0.178 bit/pixel
Аудио 1: AC-3, 48.0 KHz, 2 ch, 192 Kbps, CBR, 16 bits [Русский]
Аудио 2: AC-3, 48.0 KHz, 6 ch, 384 Kbps, CBR, 16 bits [Английский] -- --

Список серий

01. Pilot / Пилот
02. It's All Her Fault / Во всём виновата она
03. Smile, or Go to Jail / Улыбайся или попади в тюрьму
04. Let's Get to Scooping / Давайте копнём поглубже
05. We're Not Friends / Мы не друзья

MediaInfo

Код:
Общее
Как избежать наказания за убийство. Сезон 1. Невафильм. 720p\How.To.Get.Away.With.Murder.S01E01.WEB-DL.720p.Rus.Eng.mkv
Формат : Matroska
Версия формата : Version 4 / Version 2
Размер файла : 1,40 Гбайт
Продолжительность : 43 м.
Общий поток : 4597 Кбит/сек
Дата кодирования : UTC 2014-11-07 11:37:18
Программа кодирования : mkvmerge v6.9.1 ('Blue Panther') 64bit built on Apr 18 2014 18:23:38
Библиотека кодирования : libebml v1.3.0 + libmatroska v1.4.1
Видео
Идентификатор : 1
Формат : AVC
Формат/Информация : Advanced Video Codec
Профиль формата : High@L3.1
Параметр CABAC формата : Нет
Параметр ReFrames формата : 2 кадра
Идентификатор кодека : V_MPEG4/ISO/AVC
Продолжительность : 43 м.
Битрейт : 3929 Кбит/сек
Ширина : 1280 пикселей
Высота : 720 пикселей
Соотношение сторон : 16:9
Режим частоты кадров : Постоянный
Частота кадров : 23,976 кадра/сек
Цветовое пространство : YUV
Субдискретизация насыщенности : 4:2:0
Битовая глубина : 8 бит
Тип развёртки : Прогрессивная
Бит/(Пиксели*Кадры) : 0.178
Размер потока : 1,20 Гбайт (85%)
Язык : English
Default : Да
Forced : Нет
Основные цвета : BT.709
Характеристики трансфера : BT.709
Коэффициенты матрицы : BT.709
Аудио #1
Идентификатор : 2
Формат : AC-3
Формат/Информация : Audio Coding 3
Расширение режима : CM (complete main)
Параметр Endianness формата : Big
Идентификатор кодека : A_AC3
Продолжительность : 43 м.
Вид битрейта : Постоянный
Битрейт : 192 Кбит/сек
Каналы : 2 канала
Расположение каналов : Front: L R
Частота : 48,0 КГц
Битовая глубина : 16 бит
Метод сжатия : С потерями
Задержка видео : -200 мс.
Размер потока : 59,9 Мбайт (4%)
Язык : Russian
Default : Да
Forced : Нет
Аудио #2
Идентификатор : 3
Формат : AC-3
Формат/Информация : Audio Coding 3
Расширение режима : CM (complete main)
Параметр Endianness формата : Big
Идентификатор кодека : A_AC3
Продолжительность : 43 м.
Вид битрейта : Постоянный
Битрейт : 384 Кбит/сек
Каналы : 6 каналов
Расположение каналов : Front: L C R, Side: L R, LFE
Частота : 48,0 КГц
Битовая глубина : 16 бит
Метод сжатия : С потерями
Размер потока : 120 Мбайт (8%)
Язык : English
Default : Нет
Forced : Нет

Скриншоты

Раздача ведётся путём добавления новых серий

Раздача ведётся путём добавления новых серий; при каждом добавлении создаётся новый торрент. Чтобы начать докачку новой серии, пользователям необходимо сделать следующее:
(1) остановить скачивание,
(2) удалить старый торрент у себя из клиента (старые серии удалять не надо),
(3) скачать новый торрент и запустить его у себя в клиенте вместо старого, при этом указать клиенту путь в старую папку куда и должно происходить скачивание новых серий.
Ваш клиент при этом должен произвести хеширование (проверку) старой папки (если не производит сам - помогите ему сделать это), и будет докачивать только те серии которых у вас ещё нет. Старые серии при этом не удаляются, а продолжают раздаваться!
Eсли вы уже удалили старые серии, то предотвратить повторную закачку старых серий можно, отжав галочку в соответствующих местах при запуске нового торрента. По возможности, желательно не удалять старые серии как можно дольше чтобы релизёр не столько продолжал раздавать старые серии, а смог сконцентрироваться на новых.
-- --

_________________
[Торрент-статистика]
[Профиль]  [ЛС] 
Показать сообщения:    
Ответить на тему

Текущее время: Сегодня 18:29

Часовой пояс: GMT + 4



Вы не можете начинать темы
Вы не можете отвечать на сообщения
Вы не можете редактировать свои сообщения
Вы не можете удалять свои сообщения
Вы не можете голосовать в опросах
Вы не можете прикреплять файлы к сообщениям
Вы не можете скачивать файлы