Белый воротничок / White Collar / Сезон: 6 / Серии: 1-4 из 13 (Джон Т. Кречмер, Рассел Ли Файн, Пол Холахан) [2014, детектив, криминал, драма, комедия, Web-DL 720p ] MVO (NewStudio) (обновляемая)

Ответить на тему
 
Автор
Сообщение

awk05 ®

Пол:

Стаж: 6 лет 4 месяца

Сообщений: 1348

Репутация: 275 [+] [-]

Откуда: Западная Украина Ривне

Пост 08-Ноя-2014 03:55

[Цитировать] 

--Белый воротничок / White Collar«Чтобы раскрыть самое запутанное преступление, необходимо нанять самого лучшего преступника»-- Год выпуска: 2014
Страна: США
Жанр: детектив, криминал, драма, комедия
Сезон/Серия: Сезон: 6 /Серия 1-4 из 13
Продолжительность: 13 х ~00:58:00 серия
Перевод: Профессиональный (многоголосый закадровый) + Original
Озвучка / Автор перевода: NewStudio
Субтитры: отсутствуют--Режиссёр: Джон Т. Кречмер, Рассел Ли Файн, Пол Холахан--В ролях: Мэттью Бомер (Neal Caffrey), Тим ДиКэй (Peter Burke), Уилли Гарсон (Mozzie), Тиффани Тиссен (Elizabeth Burke), Шариф Аткинс (Clinton Jones), Марша Томасон (Diana Barrigan), Хилари Бертон (Sara Ellis), Дайэнн Кэррол (June), Джеймс Ребхорн (Reese Hughes), Натали Моралес (Lauren Cruz), Глория Вотсис (Alex Hunter), и др.--Описание: Сериал рассказывает о сотрудничестве гениального мошенника и агента ФБР. Нил Кэффри, невероятно обаятельный преступный ум, наконец-то был пойман своим извечным врагом, отличным агентом государственной безопасности Питером Берком. Когда Нил бежит из тюрьмы, чтобы найти свою пропавшую любовь, Питер ловит его еще раз. Нил предлагает ему не торопиться с отправкой в тюрьму, и рассмотреть возможность сотрудничества. Ведь Нил мог бы помочь поймать самых “элитных” преступников, “белых воротничков” преступного мира. Питер понимает, что интуиция и преступный опыт Нила, которых нет у законопослушного агента, могут стать хорошим подспорьем в борьбе с криминалом.--Качество видео: Web-DL 720p
Формат видео: MKV
Видео кодек: AVC (High@L3.1)
Аудио кодек: AC-3
Видео: AVC, 1280x720 (16:9), 23.976 fps, 3 990 Kbps (0.181 bit/pixel)
Аудио 1: AC-3, 48.0 KHz, 6 ch, 384 Kbps, CBR, 16 bits [Русский]
Аудио 2: AC-3, 48.0 KHz, 6 ch, 384 Kbps, CBR, 16 bits [Английский] -- --

Список серий

01. Borrowed Time / При смерти
02. Return to Sender / Вернуть отправителю
03. Uncontrolled Variables / Нерегулируемые параметры
04. All's Fair / Всё честно

Тех. данные (MI)

Код:
Общее
Уникальный идентификатор                 : 206177782991549974110454552261985862365 (0x9B1C65886F4F84B2AA8724A08A3C82DD)
Полное имя                               : E:\СЕРИАЛЫ\White Collar 1-5\White.Collar.s06.NewStudio.TV\White.Collar.s06e01.Web-DL.720p.NewStudio.TV.mkv
Формат                                   : Matroska
Версия формата                           : Version 4 / Version 2
Размер файла                             : 1,47 Гбайт
Продолжительность                        : 43 м.
Общий поток                              : 4855 Кбит/сек
Дата кодирования                         : UTC 2014-11-07 20:22:15
Программа кодирования                    : mkvmerge v7.2.0 ('On Every Street') 64bit built on Sep 13 2014 15:52:10
Библиотека кодирования                   : libebml v1.3.0 + libmatroska v1.4.1
DURATION                                 : 00:43:16.512000000
NUMBER_OF_FRAMES                         : 81141
NUMBER_OF_BYTES                          : 124632576
_STATISTICS_WRITING_APP                  : mkvmerge v7.2.0 ('On Every Street') 64bit built on Sep 13 2014 15:52:10
_STATISTICS_WRITING_DATE_UTC             : 2014-11-07 20:22:15
_STATISTICS_TAGS                         : BPS DURATION NUMBER_OF_FRAMES NUMBER_OF_BYTES
Видео
Идентификатор                            : 1
Формат                                   : AVC
Формат/Информация                        : Advanced Video Codec
Профиль формата                          : High@L3.1
Параметр CABAC формата                   : Нет
Параметр ReFrames формата                : 2 кадра
Идентификатор кодека                     : V_MPEG4/ISO/AVC
Продолжительность                        : 43 м.
Битрейт                                  : 3990 Кбит/сек
Ширина                                   : 1280 пикселей
Высота                                   : 720 пикселей
Соотношение сторон                       : 16:9
Режим частоты кадров                     : Постоянный
Частота кадров                           : 23,976 кадра/сек
Цветовое пространство                    : YUV
Субдискретизация насыщенности            : 4:2:0
Битовая глубина                          : 8 бит
Тип развёртки                            : Прогрессивная
Бит/(Пиксели*Кадры)                      : 0.181
Размер потока                            : 1,21 Гбайт (82%)
Язык                                     : English
Default                                  : Да
Forced                                   : Нет
Основные цвета                           : BT.709
Характеристики трансфера                 : BT.709
Коэффициенты матрицы                     : BT.709
Аудио #1
Идентификатор                            : 2
Формат                                   : AC-3
Формат/Информация                        : Audio Coding 3
Расширение режима                        : CM (complete main)
Параметр Endianness формата              : Big
Идентификатор кодека                     : A_AC3
Продолжительность                        : 43 м.
Вид битрейта                             : Постоянный
Битрейт                                  : 384 Кбит/сек
Каналы                                   : 6 каналов
Расположение каналов                     : Front: L C R, Side: L R, LFE
Частота                                  : 48,0 КГц
Битовая глубина                          : 16 бит
Метод сжатия                             : С потерями
Размер потока                            : 119 Мбайт (8%)
Язык                                     : Russian
Default                                  : Да
Forced                                   : Нет
Аудио #2
Идентификатор                            : 3
Формат                                   : AC-3
Формат/Информация                        : Audio Coding 3
Расширение режима                        : CM (complete main)
Параметр Endianness формата              : Big
Идентификатор кодека                     : A_AC3
Продолжительность                        : 43 м.
Вид битрейта                             : Постоянный
Битрейт                                  : 384 Кбит/сек
Каналы                                   : 6 каналов
Расположение каналов                     : Front: L C R, Side: L R, LFE
Частота                                  : 48,0 КГц
Битовая глубина                          : 16 бит
Метод сжатия                             : С потерями
Размер потока                            : 119 Мбайт (8%)
Язык                                     : English
Default                                  : Нет
Forced                                   : Нет
Текст
Идентификатор                            : 4
Формат                                   : ASS
Идентификатор кодека                     : S_TEXT/ASS
Идентификатор кодека/Информация          : Advanced Sub Station Alpha
Метод сжатия                             : Без потерь
Язык                                     : Russian
Default                                  : Да
Forced                                   : Да

Кадры из фильма


_________________
[Торрент-статистика]
[Профиль]  [ЛС] 
Показать сообщения:    
Ответить на тему

Текущее время: Сегодня 10:29

Часовой пояс: GMT + 4



Вы не можете начинать темы
Вы не можете отвечать на сообщения
Вы не можете редактировать свои сообщения
Вы не можете удалять свои сообщения
Вы не можете голосовать в опросах
Вы не можете прикреплять файлы к сообщениям
Вы не можете скачивать файлы