Константин / Constantine / Сезон:1 / Серия 1-7 из 13( Нил Маршалл / [2014 г., Ужасы, фэнтези, боевик, WEB-DL 720p] BaibaKo (обновляемая)

Ответить на тему
 
Автор
Сообщение

awk05 ®

Пол:

Стаж: 6 лет 4 месяца

Сообщений: 1348

Репутация: 275 [+] [-]

Откуда: Западная Украина Ривне

Пост 25-Окт-2014 23:02

[Цитировать] 

--Константин / Constantine «Giving Hell... hell»-- Производство: США
Год выпуска: 2014
Жанр: Ужасы, фэнтези, боевик
Сезон/Серия: Сезон:1 / Серия 1-7 из 13
Продолжительность: 13 х 00:46:30
Перевод: Профессиональный (многоголосый, закадровый + Original
Озвучка / Автор перевода: BaibaKo
Субтитры: отсутствуют--Режиссер: Нил Маршалл / Neil Marshall-Актеры: Мэтт Райан, Люси Гриффитс, Хэролд Перрино, Чарльз Халфорд, Майлз Андерсон, Джереми Дэвис, Джулия Леман, Марк Эшворт, Хиллари Брант и др.--Описание фильма: Бывалый охотник на демонов и оккультист Джон Константин задаёт жару аду. Вооруженный таинственными знаниями темных искусств и обладая острым умом, он ведет неравную борьбу… ну, или по крайней мере вел. Так как его душа уже все равно проклята и попадет в ад, он решает оставить жизнь борца за добро, но когда демоны нацеливаются на Лив, дочь одного из самых давних друзей Константина, он неохотно возвращается, и сделает все возможное, чтобы спасти её.--Качество видео: WEB-DL 720p
Формат видео: MKV
Видео кодек: AVC (High@L4.1)
Аудио кодек: AC-3
Видео: AVC, 1280x718 (16:9), 23.976 fps, 4 119 Kbps (0.187 bit/pixel)
Аудио 1: AC-3, 48.0 KHz, 6 ch, 384 Kbps, CBR, 16 bits [Русский]
Аудио 2: AC-3, 48.0 KHz, 6 ch, 384 Kbps, CBR, 16 bits [Английский] -- --

Список серий

01 - Нет - прибежищу! / Non Est Asylum (пилотная серия была переснята)
02 - Подземная тьма / The Darkness Beneath
03 - Дьявольский винил / The Devil's Vinyl
04 - Пиршество друзей / A Feast of Friends
05 - Танец Вуду / Danse Vaudou
06 - Ярость Калибана / Rage of Caliban
07 - Благословенные проклятые / Blessed Are The Damned

Кадры из фильма

Тех. данные (MI)

Код:
Общее
Уникальный идентификатор                 : 180036244914918320974407437775761439329 (0x8771B8322DC50CF39083F6DD60CDFA61)
Полное имя                               : G:\Сериалы\Constantine\Constantine.s01e01.HD720p.WEB-DL.Rus.Eng.BaibaKo.tv.mkv
Формат                                   : Matroska
Версия формата                           : Version 4 / Version 2
Размер файла                             : 1,50 Гбайт
Продолжительность                        : 43 м.
Общий поток                              : 4986 Кбит/сек
Дата кодирования                         : UTC 2014-10-25 15:52:46
Программа кодирования                    : mkvmerge v6.7.0 ('Back to the Ground') 64bit built on Jan  8 2014 15:10:52
Библиотека кодирования                   : libebml v1.3.0 + libmatroska v1.4.1
Видео
Идентификатор                            : 1
Формат                                   : AVC
Формат/Информация                        : Advanced Video Codec
Профиль формата                          : High@L3.1
Параметр CABAC формата                   : Нет
Параметр ReFrames формата                : 2 кадра
Идентификатор кодека                     : V_MPEG4/ISO/AVC
Продолжительность                        : 43 м.
Битрейт                                  : 4119 Кбит/сек
Ширина                                   : 1280 пикселей
Высота                                   : 718 пикселей
Соотношение сторон                       : 16:9
Режим частоты кадров                     : Постоянный
Частота кадров                           : 23,976 кадра/сек
Цветовое пространство                    : YUV
Субдискретизация насыщенности            : 4:2:0
Битовая глубина                          : 8 бит
Тип развёртки                            : Прогрессивная
Бит/(Пиксели*Кадры)                      : 0.187
Размер потока                            : 1,24 Гбайт (83%)
Язык                                     : English
Default                                  : Да
Forced                                   : Нет
Основные цвета                           : BT.709
Характеристики трансфера                 : BT.709
Коэффициенты матрицы                     : BT.709
Аудио #1
Идентификатор                            : 2
Формат                                   : AC-3
Формат/Информация                        : Audio Coding 3
Расширение режима                        : CM (complete main)
Параметр Endianness формата              : Big
Идентификатор кодека                     : A_AC3
Продолжительность                        : 43 м.
Вид битрейта                             : Постоянный
Битрейт                                  : 384 Кбит/сек
Каналы                                   : 6 каналов
Расположение каналов                     : Front: L C R, Side: L R, LFE
Частота                                  : 48,0 КГц
Битовая глубина                          : 16 бит
Метод сжатия                             : С потерями
Размер потока                            : 118 Мбайт (8%)
Язык                                     : Russian
Default                                  : Да
Forced                                   : Нет
Аудио #2
Идентификатор                            : 3
Формат                                   : AC-3
Формат/Информация                        : Audio Coding 3
Расширение режима                        : CM (complete main)
Параметр Endianness формата              : Big
Идентификатор кодека                     : A_AC3
Продолжительность                        : 43 м.
Вид битрейта                             : Постоянный
Битрейт                                  : 384 Кбит/сек
Каналы                                   : 6 каналов
Расположение каналов                     : Front: L C R, Side: L R, LFE
Частота                                  : 48,0 КГц
Битовая глубина                          : 16 бит
Метод сжатия                             : С потерями
Размер потока                            : 118 Мбайт (8%)
Язык                                     : English
Default                                  : Нет
Forced                                   : Нет

Внимание! Раздача ведётся путём добавления новых серий

Внимание! Раздача ведётся путём добавления новых серий; при каждом добавлении создаётся новый торрент.
Чтобы начать докачку новой серии, пользователям необходимо сделать следующее:
1. Остановить скачивание;
2. Удалить старый торрент у себя из клиента (старые серии удалять не надо);
3. Скачать новый торрент и запустить его у себя в клиенте вместо старого, при этом указать клиенту путь в старую папку куда и должно происходить скачивание новых серий. Ваш клиент при этом должен произвести хеширование (проверку) старой папки и будет докачивать только те серии, которых у вас ещё нет. Старые серии при этом не удаляются, а продолжают раздаваться! Eсли вы уже удалили старые серии, то предотвратить повторную закачку старых серий можно, отжав галочку в соответствующих местах при запуске нового торрента.

_________________
[Торрент-статистика]
[Профиль]  [ЛС] 
Показать сообщения:    
Ответить на тему

Текущее время: Сегодня 08:47

Часовой пояс: GMT + 4



Вы не можете начинать темы
Вы не можете отвечать на сообщения
Вы не можете редактировать свои сообщения
Вы не можете удалять свои сообщения
Вы не можете голосовать в опросах
Вы не можете прикреплять файлы к сообщениям
Вы не можете скачивать файлы