Грейспоинт / Gracepoint / Сезон:1 / Серия 1-9 из ?? (Джеймс Стронг, Эрос Лин, Дэвид Петрарка)[2014г., Детектив, WEB-DL 720р] MVO NewStudio (Обновляемая)

Ответить на тему
 
Автор
Сообщение

awk05 ®

Пол:

Стаж: 5 лет 7 месяцев

Сообщений: 1352

Репутация: 275 [+] [-]

Откуда: Западная Украина Ривне

Пост 04-Окт-2014 18:16

[Цитировать] 

--Грейспоинт / Gracepoint-- Страна: США
Год выпуска: 2014
Жанр: Детектив
Сезон/Серия: Сезон:1 / Серия 1-9 из ??
Продолжительность: 9 ~00:45:00 серия
Перевод: Многоголосый закадровый, профессиональный
Озвучка / Автор перевода: (NewStudio)
Субтитры: отсутствуют--Режиссер: Джеймс Стронг, Эрос Лин, Дэвид Петрарка--Актеры: Кевин Зегерс, Сара-Джейн Поттс, Дэвид Теннант, Анна Ганн, Джессика Лукас и др.--Описание фильма: Когда маленького мальчика находят мертвым на пляже в небольшом калифорнийском приморском городке, полиция начинает расследование. После того, как выясняется, что это было убийство, в СМИ начинается информационное безумие, сконцентрированное на этой трагедии, что коренным образом меняет как жизнь семьи мальчика, так и жизнь всех жителей города.--Качество видео: WEB-DL 720р
Формат видео: MKV
Видео кодек: AVC (High@L3.1)
Аудио кодек: AC-3
Видео: AVC, 1280x720 (16:9), 23.976 fps, 4 159 Kbps (0.188 bit/pixel)
Аудио 1: AC-3, 48.0 KHz, 6 ch, 384 Kbps, CBR, 16 bits [Русский]
Аудио 2: AC-3, 48.0 KHz, 6 ch, 384 Kbps, CBR, 16 bits [Английский]-- --

Кадры из фильма

Тех. данные (MI)

Код:
Общее
Уникальный идентификатор                 : 245770344503333163795957054708781072988 (0xB8E5A5870FE3C3BF8E487305B3EEC25C)
Полное имя                               : E:\Сериалы новые\Gracepoint.s01.NewStudio\Gracepoint.s01e01.WEBDL.720p.NewStudio.TV.mkv
Формат                                   : Matroska
Версия формата                           : Version 2
Размер файла                             : 1,62 Гбайт
Продолжительность                        : 46 м.
Общий поток                              : 5027 Кбит/сек
Дата кодирования                         : UTC 2014-10-04 06:43:06
Программа кодирования                    : mkvmerge v2.9.9 ('Tutu') built on Nov 25 2009 21:13:32
Библиотека кодирования                   : libebml v0.7.9 + libmatroska v0.8.1
Видео
Идентификатор                            : 1
Формат                                   : AVC
Формат/Информация                        : Advanced Video Codec
Профиль формата                          : High@L3.1
Параметр CABAC формата                   : Нет
Параметр ReFrames формата                : 2 кадра
Идентификатор кодека                     : V_MPEG4/ISO/AVC
Продолжительность                        : 46 м.
Битрейт                                  : 4159 Кбит/сек
Ширина                                   : 1280 пикселей
Высота                                   : 720 пикселей
Соотношение сторон                       : 16:9
Режим частоты кадров                     : Постоянный
Частота кадров                           : 23,976 кадра/сек
Цветовое пространство                    : YUV
Субдискретизация насыщенности            : 4:2:0
Битовая глубина                          : 8 бит
Тип развёртки                            : Прогрессивная
Бит/(Пиксели*Кадры)                      : 0.188
Размер потока                            : 1,34 Гбайт (83%)
Язык                                     : English
Default                                  : Нет
Forced                                   : Нет
Основные цвета                           : BT.709
Характеристики трансфера                 : BT.709
Коэффициенты матрицы                     : BT.709
Аудио #1
Идентификатор                            : 2
Формат                                   : AC-3
Формат/Информация                        : Audio Coding 3
Расширение режима                        : CM (complete main)
Параметр Endianness формата              : Big
Идентификатор кодека                     : A_AC3
Продолжительность                        : 46 м.
Вид битрейта                             : Постоянный
Битрейт                                  : 384 Кбит/сек
Каналы                                   : 6 каналов
Расположение каналов                     : Front: L C R, Side: L R, LFE
Частота                                  : 48,0 КГц
Битовая глубина                          : 16 бит
Метод сжатия                             : С потерями
Размер потока                            : 127 Мбайт (8%)
Язык                                     : Russian
Default                                  : Да
Forced                                   : Да
Аудио #2
Идентификатор                            : 3
Формат                                   : AC-3
Формат/Информация                        : Audio Coding 3
Расширение режима                        : CM (complete main)
Параметр Endianness формата              : Big
Идентификатор кодека                     : A_AC3
Продолжительность                        : 46 м.
Вид битрейта                             : Постоянный
Битрейт                                  : 384 Кбит/сек
Каналы                                   : 6 каналов
Расположение каналов                     : Front: L C R, Side: L R, LFE
Частота                                  : 48,0 КГц
Битовая глубина                          : 16 бит
Метод сжатия                             : С потерями
Размер потока                            : 127 Мбайт (8%)
Язык                                     : English
Default                                  : Нет
Forced                                   : Нет

Внимание! Раздача ведётся путём добавления новых серий

Внимание! Раздача ведётся путём добавления новых серий; при каждом добавлении создаётся новый торрент.
Чтобы начать докачку новой серии, пользователям необходимо сделать следующее:
1. Остановить скачивание;
2. Удалить старый торрент у себя из клиента (старые серии удалять не надо);
3. Скачать новый торрент и запустить его у себя в клиенте вместо старого, при этом указать клиенту путь в старую папку куда и должно происходить скачивание новых серий. Ваш клиент при этом должен произвести хеширование (проверку) старой папки и будет докачивать только те серии, которых у вас ещё нет. Старые серии при этом не удаляются, а продолжают раздаваться! Eсли вы уже удалили старые серии, то предотвратить повторную закачку старых серий можно, отжав галочку в соответствующих местах при запуске нового торрента.

_________________
[Торрент-статистика]
[Профиль]  [ЛС] 
Показать сообщения:    
Ответить на тему

Текущее время: Сегодня 16:06

Часовой пояс: GMT + 4



Вы не можете начинать темы
Вы не можете отвечать на сообщения
Вы не можете редактировать свои сообщения
Вы не можете удалять свои сообщения
Вы не можете голосовать в опросах
Вы не можете прикреплять файлы к сообщениям
Вы не можете скачивать файлы