В простом виде / In Plain Sight / Сезон: 4 / Серии: 1-13 (13) (Дэн Лернер / Dan Lerner, Энди Волк / Andy Wolk, Брайан Спайсер / Bryan Spicer) [2011, США, триллер, драма, криминал, WEB-DL 720p] MVO (Fox Crime)

Ответить на тему
 
Автор
Сообщение

awk05 ®

Пол:

Стаж: 5 лет 10 месяцев

Сообщений: 1352

Репутация: 275 [+] [-]

Откуда: Западная Украина Ривне

Пост 01-Окт-2014 18:47

[Цитировать] 

--В простом виде / In Plain Sight «Welcome to witness protection. Now get lost.»-- Страна: США
Год выпуска: 2011
Жанр: триллер, драма, криминал, детектив
Сезон/Серия: Сезон:4 / Серия 1-13 из 13
Продолжительность: 12 х ~00:42:00
Перевод: Профессиональный (многоголосый, закадровый) + Любительский двухголосый закадровый " + Original
Озвучка / Автор перевода: Fox Crime, To4ka"
Субтитры: отсутствуют--Режиссер: Дэн Лернер / Dan Lerner, Энди Волк / Andy Wolk, Брайан Спайсер / Bryan Spicer--В ролях: Мэри МакКормак (Mary Shannon), Фред Уэллер (Marshall Mann), Пол Бен-Виктор (Stan McQueen), Николь Хильтц (Brandi Shannon), Лесли Энн Уоррен (Jinx Shannon), Кристиан де ла Фуэнте (Raphael Ramirez), Джошуа Малина (Peter Alpert), Tangie Ambrose (Delia Parmalee), Тодд Уильямс (Detective Robert Dershowitz), Рейчел Бостон (Detective Abigail Chaffee), Холли Мэйплс (Eleanor Prince), Али Марш (Dr. Shelley Finkel)--Описание: Защитить свидетелей, когда те дают показания против самых ужасных преступников - вот главная задача американских маршалов. Именно эти судебные чиновники обеспечивают безопасность и анонимность всем людям, попавшим в программу по защите свидетелей. Мэри Шэннон - красивая и сильная женщина-маршал. Непростую работу Мэри совмещает с постоянной заботой о своей проблемной семье, в которую входят асоциальная сестра и эксцентричная мать.--Качество видео: WEB-DL 720p
Формат видео: MKV
Видео кодек: AVC (High@L3.1)
Аудио кодек: AC-3
Видео: AVC, 1280x720 (16:9), 23.976 fps, 4 162 Kbps (0.188 bit/pixel)
Аудио 1: AC-3, 48.0 KHz, 2 ch, 192 Kbps, CBR, 16 bits [Русский]
Аудио 2: AC-3, 48.0 KHz, 2 ch, 192 Kbps, CBR, 16 bits [Русский]
Аудио 3: AC-3, 48.0 KHz, 6 ch, 384 Kbps, CBR, 16 bits [Английский] -- --

Тех. данные (MI)

Код:
Общее
Уникальный идентификатор                 : 253909135157168175051333205576657755177 (0xBF051EE34373DDA9AFCD05E81A295C29)
Полное имя                               : E:\тест\In.Plain.Sight\In.Plain.Sight.S04.720p.WEB-DL.Rus\In.Plain.Sight.S04E01.720p.WEB-DL.Rus.mkv
Формат                                   : Matroska
Версия формата                           : Version 2
Размер файла                             : 1,51 Гбайт
Продолжительность                        : 43 м.
Общий поток                              : 5030 Кбит/сек
Название фильма                          : In Plain Sight S04E01 'The Art of the Steal' by SPS
Дата кодирования                         : UTC 2013-10-22 14:37:01
Программа кодирования                    : mkvmerge v6.5.0 ('Isn't she lovely') built on Oct 20 2013 12:50:05
Библиотека кодирования                   : libebml v1.3.0 + libmatroska v1.4.1
Видео
Идентификатор                            : 1
Формат                                   : AVC
Формат/Информация                        : Advanced Video Codec
Профиль формата                          : High@L3.1
Параметр CABAC формата                   : Нет
Параметр ReFrames формата                : 2 кадра
Идентификатор кодека                     : V_MPEG4/ISO/AVC
Продолжительность                        : 43 м.
Битрейт                                  : 4162 Кбит/сек
Ширина                                   : 1280 пикселей
Высота                                   : 720 пикселей
Соотношение сторон                       : 16:9
Режим частоты кадров                     : Постоянный
Частота кадров                           : 23,976 кадра/сек
Цветовое пространство                    : YUV
Субдискретизация насыщенности            : 4:2:0
Битовая глубина                          : 8 бит
Тип развёртки                            : Прогрессивная
Бит/(Пиксели*Кадры)                      : 0.188
Размер потока                            : 1,25 Гбайт (83%)
Язык                                     : English
Default                                  : Да
Forced                                   : Нет
Основные цвета                           : BT.709
Характеристики трансфера                 : BT.709
Коэффициенты матрицы                     : BT.709
Аудио #1
Идентификатор                            : 2
Формат                                   : AC-3
Формат/Информация                        : Audio Coding 3
Расширение режима                        : CM (complete main)
Параметр Endianness формата              : Big
Идентификатор кодека                     : A_AC3
Продолжительность                        : 43 м.
Вид битрейта                             : Постоянный
Битрейт                                  : 192 Кбит/сек
Каналы                                   : 2 канала
Расположение каналов                     : Front: L R
Частота                                  : 48,0 КГц
Битовая глубина                          : 16 бит
Метод сжатия                             : С потерями
Размер потока                            : 59,2 Мбайт (4%)
Заголовок                                : Fox\
Язык                                     : Russian
Default                                  : Да
Forced                                   : Нет
Аудио #2
Идентификатор                            : 3
Формат                                   : AC-3
Формат/Информация                        : Audio Coding 3
Расширение режима                        : CM (complete main)
Параметр Endianness формата              : Big
Идентификатор кодека                     : A_AC3
Продолжительность                        : 43 м.
Вид битрейта                             : Постоянный
Битрейт                                  : 192 Кбит/сек
Каналы                                   : 2 канала
Расположение каналов                     : Front: L R
Частота                                  : 48,0 КГц
Битовая глубина                          : 16 бит
Метод сжатия                             : С потерями
Задержка видео                           : 4 мс.
Размер потока                            : 59,2 Мбайт (4%)
Заголовок                                : To4ka TV
Язык                                     : Russian
Default                                  : Нет
Forced                                   : Нет
Аудио #3
Идентификатор                            : 4
Формат                                   : AC-3
Формат/Информация                        : Audio Coding 3
Расширение режима                        : CM (complete main)
Параметр Endianness формата              : Big
Идентификатор кодека                     : A_AC3
Продолжительность                        : 43 м.
Вид битрейта                             : Постоянный
Битрейт                                  : 384 Кбит/сек
Каналы                                   : 6 каналов
Расположение каналов                     : Front: L C R, Side: L R, LFE
Частота                                  : 48,0 КГц
Битовая глубина                          : 16 бит
Метод сжатия                             : С потерями
Размер потока                            : 118 Мбайт (8%)
Язык                                     : English
Default                                  : Нет
Forced                                   : Нет

Кадры из фильма


_________________
[Торрент-статистика]
[Профиль]  [ЛС] 
Показать сообщения:    
Ответить на тему

Текущее время: Сегодня 18:29

Часовой пояс: GMT + 4



Вы не можете начинать темы
Вы не можете отвечать на сообщения
Вы не можете редактировать свои сообщения
Вы не можете удалять свои сообщения
Вы не можете голосовать в опросах
Вы не можете прикреплять файлы к сообщениям
Вы не можете скачивать файлы