В простом виде / In Plain Sight / Сезон: 1 / Серии: 1-12 (12) (Дэн Лернер / Dan Lerner, Энди Волк / Andy Wolk, Брайан Спайсер / Bryan Spicer) [2008, США, триллер, драма, криминал, WEB-DL 720p] MVO (Fox Crime)

Ответить на тему
 
Автор
Сообщение

awk05 ®

Пол:

Стаж: 6 лет 3 месяца

Сообщений: 1351

Репутация: 275 [+] [-]

Откуда: Западная Украина Ривне

Пост 01-Окт-2014 18:37

[Цитировать] 

--В простом виде / In Plain Sight «Welcome to witness protection. Now get lost.»-- Страна: США
Год выпуска: 2008
Жанр: триллер, драма, криминал, детектив
Сезон/Серия: Сезон:1 / Серия 1-12 из 12
Продолжительность: 12 х ~00:42:00
Перевод: Профессиональный (многоголосый, закадровый) + Original
Озвучка / Автор перевода: Fox Crime
Субтитры: отсутствуют--Режиссер: Дэн Лернер / Dan Lerner, Энди Волк / Andy Wolk, Брайан Спайсер / Bryan Spicer--В ролях: Мэри МакКормак (Mary Shannon), Фред Уэллер (Marshall Mann), Пол Бен-Виктор (Stan McQueen), Николь Хильтц (Brandi Shannon), Лесли Энн Уоррен (Jinx Shannon), Кристиан де ла Фуэнте (Raphael Ramirez), Джошуа Малина (Peter Alpert), Tangie Ambrose (Delia Parmalee), Тодд Уильямс (Detective Robert Dershowitz), Рейчел Бостон (Detective Abigail Chaffee), Холли Мэйплс (Eleanor Prince), Али Марш (Dr. Shelley Finkel)--Описание: Защитить свидетелей, когда те дают показания против самых ужасных преступников - вот главная задача американских маршалов. Именно эти судебные чиновники обеспечивают безопасность и анонимность всем людям, попавшим в программу по защите свидетелей. Мэри Шэннон - красивая и сильная женщина-маршал. Непростую работу Мэри совмещает с постоянной заботой о своей проблемной семье, в которую входят асоциальная сестра и эксцентричная мать.--Качество видео: WEB-DL 720p
Формат видео: MKV
Видео кодек: AVC (High@L3.1)
Аудио кодек: AC-3
Видео: AVC, 1280x720 (16:9), 23.976 fps, 4 033 Kbps (0.183 bit/pixel)
Аудио 1: AC-3, 48.0 KHz, 2 ch, 192 Kbps, CBR, 16 bits [Русский]
Аудио 2: AC-3, 48.0 KHz, 6 ch, 384 Kbps, CBR, 16 bits [Английский] -- --

Тех. данные (MI)

Общее
Уникальный идентификатор : 218669244672307604769031873818302990552 (0xA4822A24BD3349B49BBF8E74C979C8D8)
Полное имя : E:\тест\In.Plain.Sight\In.Plain.Sight.S01.720p.WEB-DL.FoxCrime\In.Plain.Sight.S01E01.720p.WEB-DL.FoxCrime.mkv
Формат : Matroska
Версия формата : Version 2
Размер файла : 2,21 Гбайт
Продолжительность : 1 ч. 7 м.
Общий поток : 4702 Кбит/сек
Название фильма : In Plain Sight S01E01 'Pilot' by SPS
Дата кодирования : UTC 2012-05-13 15:06:56
Программа кодирования : mkvmerge v5.5.0 ('Healer') built on Apr 6 2012 21:43:24
Библиотека кодирования : libebml v1.2.3 + libmatroska v1.3.0
Видео
Идентификатор : 1
Формат : AVC
Формат/Информация : Advanced Video Codec
Профиль формата : High@L3.1
Параметр CABAC формата : Нет
Параметр ReFrames формата : 2 кадра
Идентификатор кодека : V_MPEG4/ISO/AVC
Продолжительность : 1 ч. 7 м.
Битрейт : 4033 Кбит/сек
Ширина : 1280 пикселей
Высота : 720 пикселей
Соотношение сторон : 16:9
Режим частоты кадров : Постоянный
Частота кадров : 23,976 кадра/сек
Цветовое пространство : YUV
Субдискретизация насыщенности : 4:2:0
Битовая глубина : 8 бит
Тип развёртки : Прогрессивная
Бит/(Пиксели*Кадры) : 0.183
Размер потока : 1,89 Гбайт (86%)
Язык : English
Default : Да
Forced : Нет
Основные цвета : BT.709
Характеристики трансфера : BT.709
Коэффициенты матрицы : BT.709
Аудио #1
Идентификатор : 2
Формат : AC-3
Формат/Информация : Audio Coding 3
Расширение режима : CM (complete main)
Параметр Endianness формата : Big
Идентификатор кодека : A_AC3
Продолжительность : 1 ч. 7 м.
Вид битрейта : Постоянный
Битрейт : 192 Кбит/сек
Каналы : 2 канала
Расположение каналов : Front: L R
Частота : 48,0 КГц
Битовая глубина : 16 бит
Метод сжатия : С потерями
Размер потока : 92,3 Мбайт (4%)
Заголовок : Fox Crime
Язык : Russian
Default : Да
Forced : Нет
Аудио #2
Идентификатор : 3
Формат : AC-3
Формат/Информация : Audio Coding 3
Расширение режима : CM (complete main)
Параметр Endianness формата : Big
Идентификатор кодека : A_AC3
Продолжительность : 1 ч. 7 м.
Вид битрейта : Постоянный
Битрейт : 384 Кбит/сек
Каналы : 6 каналов
Расположение каналов : Front: L C R, Side: L R, LFE
Частота : 48,0 КГц
Битовая глубина : 16 бит
Метод сжатия : С потерями
Размер потока : 185 Мбайт (8%)
Язык : English
Default : Нет
Forced : Нет

Кадры из фильма


_________________
[Торрент-статистика]
[Профиль]  [ЛС] 
Показать сообщения:    
Ответить на тему

Текущее время: Сегодня 06:45

Часовой пояс: GMT + 4



Вы не можете начинать темы
Вы не можете отвечать на сообщения
Вы не можете редактировать свои сообщения
Вы не можете удалять свои сообщения
Вы не можете голосовать в опросах
Вы не можете прикреплять файлы к сообщениям
Вы не можете скачивать файлы