Общее дело / Common Law / Сезон: 1 / Серии: 1-12 (12) (Стивен Серджик, Джон Беринг, Мэл Дэмски) [2012, детектив, комедия, криминал, WEB-DL 720p] DVO (NewStudio)

Ответить на тему
 
Автор
Сообщение

awk05 ®

Пол:

Стаж: 5 лет 10 месяцев

Сообщений: 1352

Репутация: 275 [+] [-]

Откуда: Западная Украина Ривне

Пост 01-Окт-2014 18:16

[Цитировать] 

--Общее дело / Common Law-- Год выпуска: 2012
Страна: США
Жанр: детектив, комедия, криминал
Сезон/Серия: Сезон:1 / Серия 1-12 из 12
Продолжительность: 12 х ~01:07:00 мин
Перевод: Профессиональный (двухголосый) + Original
Озвучка / Автор перевода: (NewStudio)
Субтитры: нет--Режиссер: Стивен Серджик, Джон Беринг, Мэл Дэмски--В ролях: Майкл Или, Уоррен Коул, Джек МакГи, Соня Уолгер, Лайл Брокато--Описание: Проект рассказывает о двух копах — Уэсе Митчелле и Трэвисе Марксе — для которых проблемой являются они сами. Будучи напарниками они были командой мечты департамента Лос-Анджелеса. Сейчас Уэс и Трэвис не могут терпеть друг друга. Чтобы оживить ослабевающие профессиональные отношения, капитан отправляет их на курс терапии для пар. Однако зачастую залог хороших отношений не в любви к одним и тем же вещам — вы просто должны ненавидеть одно и тоже.--Качество видео: WEB-DL 720p
Формат видео: MKV
Видео кодек: AVC (High@L3.1)
Аудио кодек: AC-3
Видео: AVC, 1280x720 (16:9), 23.976 fps, 4 201 Kbps (0.190 bit/pixel)
Аудио 1: AC-3, 48.0 KHz, 2 ch, 192 Kbps, CBR, 16 bits [Русский]
Аудио 2: AC-3, 48.0 KHz, 6 ch, 384 Kbps, CBR, 16 bits [Английский] -- --

Список серий

Pilot / Пилот
Ridealong / Под наблюдением
Soul Mates / Родственные души
The Ex-Factor / Родственные души
The T Word
Performance Anxiety
Role Play
Joint Custody
Odd Couples / Странные пары
In-Laws vs. Outlaws / Предки
Hot for Teacher / Горячая училка
Gun! / Пушка!

Кадры из фильма

Тех. данные (MI)

Код:
Общее
Уникальный идентификатор                 : 192929663220626644370999317436907803205 (0x9124E6CC5AF74822AA15A5B6D7C65245)
Полное имя                               : E:\тест\common.law.s01_NewStudio\common.law.s01e01.720p.webdl_NewStudio.TV.mkv
Формат                                   : Matroska
Версия формата                           : Version 2
Размер файла                             : 2,31 Гбайт
Продолжительность                        : 1 ч. 7 м.
Общий поток                              : 4874 Кбит/сек
Дата кодирования                         : UTC 2012-06-06 19:00:38
Программа кодирования                    : mkvmerge v5.5.0 ('Healer') built on Apr  6 2012 21:43:24
Библиотека кодирования                   : libebml v1.2.3 + libmatroska v1.3.0
Видео
Идентификатор                            : 1
Формат                                   : AVC
Формат/Информация                        : Advanced Video Codec
Профиль формата                          : High@L3.1
Параметр CABAC формата                   : Нет
Параметр ReFrames формата                : 2 кадра
Идентификатор кодека                     : V_MPEG4/ISO/AVC
Продолжительность                        : 1 ч. 7 м.
Битрейт                                  : 4201 Кбит/сек
Ширина                                   : 1280 пикселей
Высота                                   : 720 пикселей
Соотношение сторон                       : 16:9
Режим частоты кадров                     : Постоянный
Частота кадров                           : 23,976 кадра/сек
Цветовое пространство                    : YUV
Субдискретизация насыщенности            : 4:2:0
Битовая глубина                          : 8 бит
Тип развёртки                            : Прогрессивная
Бит/(Пиксели*Кадры)                      : 0.190
Размер потока                            : 1,99 Гбайт (86%)
Язык                                     : English
Default                                  : Да
Forced                                   : Нет
Основные цвета                           : BT.709
Характеристики трансфера                 : BT.709
Коэффициенты матрицы                     : BT.709
Аудио #1
Идентификатор                            : 2
Формат                                   : AC-3
Формат/Информация                        : Audio Coding 3
Расширение режима                        : CM (complete main)
Параметр Endianness формата              : Big
Режим смешивания                         : Header stripping
Идентификатор кодека                     : A_AC3
Продолжительность                        : 1 ч. 7 м.
Вид битрейта                             : Постоянный
Битрейт                                  : 192 Кбит/сек
Каналы                                   : 2 канала
Расположение каналов                     : Front: L R
Частота                                  : 48,0 КГц
Битовая глубина                          : 16 бит
Метод сжатия                             : С потерями
Размер потока                            : 93,2 Мбайт (4%)
Язык                                     : Russian
Default                                  : Да
Forced                                   : Нет
Аудио #2
Идентификатор                            : 3
Формат                                   : AC-3
Формат/Информация                        : Audio Coding 3
Расширение режима                        : CM (complete main)
Параметр Endianness формата              : Big
Идентификатор кодека                     : A_AC3
Продолжительность                        : 1 ч. 7 м.
Вид битрейта                             : Постоянный
Битрейт                                  : 384 Кбит/сек
Каналы                                   : 6 каналов
Расположение каналов                     : Front: L C R, Side: L R, LFE
Частота                                  : 48,0 КГц
Битовая глубина                          : 16 бит
Метод сжатия                             : С потерями
Размер потока                            : 186 Мбайт (8%)
Язык                                     : English
Default                                  : Нет
Forced                                   : Нет

_________________
[Торрент-статистика]
[Профиль]  [ЛС] 
Показать сообщения:    
Ответить на тему

Текущее время: Сегодня 18:29

Часовой пояс: GMT + 4



Вы не можете начинать темы
Вы не можете отвечать на сообщения
Вы не можете редактировать свои сообщения
Вы не можете удалять свои сообщения
Вы не можете голосовать в опросах
Вы не можете прикреплять файлы к сообщениям
Вы не можете скачивать файлы