Спартак / Spartacus (1-3 сезоны + Приквел: 1-39 серии из 39) (Джесси Уарн, Майкл Херст, Рик Джейкобсон) [2010-2013 г, Драма, приключения, история, BDRi​p 1080p] MVO (LostFilm)

Ответить на тему
 
Автор
Сообщение

mihis ®

Стаж: 3 года 6 месяцев

Сообщений: 1

Репутация: 3 [+] [-]

Пост 01-Окт-2014 01:24

[Цитировать] 

Спартак / Spartacus3 сезона + Приквел, 39 серий Год выпуска: 2010-2013
Страна: США, Starz media, Starz productions
Жанр: Драма, приключения, история
Сезон/Серия: Сезон:1-3 / Серия 1-39 из 39
Продолжительность: 39 x ~ 00:52:00
Перевод: Профессиональный (многоголосый, закадровый) LostFilm
Субтитры: нет
Режиссер: Джесси Уарн, Майкл Херст, Рик Джейкобсон
В ролях: Энди Уитфилд, Лиам МакИнтайр, Ману Беннетт, Дастин Клер, Дэниел Фьюрригал, Ник Тарабэй, Джон Ханна, Люси Лоулесс, Вива Бьянка, Питер Менса, Крэйг Паркер, Пена Хема Тейлор, Синтия Аддай-Робинсон, Хит Джонс, Катрина Ло, Эллен Холлман, Бэрри Даффилд, Лесли-Энн Брандт, Саймон Мерреллс, Джай Кортни, Дженна Линд, Тодд Ласанс, Иоан Кинг, Анна Хатчисон, Дитч Дэвей
Описание: Спартак - это жесткий и выразительный рассказ о самом знаменитом из римских гладиаторов. Спартака разлучили с любовью всей его жизни и заставили выходить на арену, где смерть - лучшее развлечение для толпы. Спартак должен бороться за выживание, подружиться с врагами, и усвоить политику нового мира жестокости, секса и славы. Его будут соблазнять властью и изводить местью. Но его страсть даст ему силы преодолеть все испытания в этой истории о смерти, чести и стойкости…

Качество: BDRip (1080p)
Формат: MKV
Видео кодек: AVC
Аудио кодек: AC3
Видео: AVC, 1920x1080 (16:9), 23.976 fps, 8 000 Kbps (0.161 bit/pixel)
Аудио: AC3, 48.0 KHz, 6 ch, 640 Kbps, CBR

Список серий

1-й сезон: Кровь и песок
01. Красный змей / The red serpent
02. Клятва гладиаторов / Sacramentum gladiatorum
03. Легенды / Legends
04. Зверь в яме / The thing in the pit
05. Теневые игры / Shadow games
06. Щекотливые дела / Delicate things
07. Великие и печальные события / Great and unfortunate things
08. Клеймо братства / Mark of the brotherhood
09. Шлюха / Whore
10. Праздничные подарки / Party favors
11. Старые раны / Old wounds
12. Разоблачение / Revelation
13. Убей их всех / Kill them all
Приквел: Боги арены
01. Былые проступки / Past transgressions
02. Пощада / Missio
03. Глава семьи / Paterfamilias
04. Под маской / Beneath the mask
05. Расплата / Reckoning
06. Горький финал / The bitter end
2-й сезон: Месть
01. Беглый / Fugitivus
02. Место в этом мире / A place in this world
03. Высшее благо / The greater good
04. Пустые руки / Empty hands
05. Вольный / Libertus
06. Выбранный путь / Chosen path
07. Клятва / Sacramentum
08. Равновесие / Balance
09. Монстры / Monsters
10. Гнев богов / Wraths of the gods
3-й сезон: Война проклятых
01. Враги Рима / Enemies of Rome
02. Волки у ворот / Wolves at the gate
03. Люди чести / Men of honor
04. Децимация / Decimation
05. Братья по крови / Blood brothers
06. Военные трофеи / Spoils of war
07. Неизбежная смерть / Mors indecepta
08. Разные пути / Separate paths
09. Мёртвые и умирающие / The dead and the dying
10. Победа / Victory

MediaInfo

Спартак [1-й сезон] - Кровь и песок
Общее
Уникальный идентификатор : 164950561914224335062804188106907846155 (0x7C18529969F633E49613F756DA6E060B)
Полное имя : G:\Video\Спартак (1080p)\Спартак [1-й сезон] - Кровь и песок (1080p)\Спартак [1-й сезон] - Кровь и песок - 01 (1080p).mkv
Формат : Matroska
Версия формата : Version 2
Размер файла : 3,32 Гбайт
Продолжительность : 54 м.
Общий поток : 8643 Кбит/сек
Дата кодирования : UTC 2010-09-28 12:53:04
Программа кодирования : XviD4PSP 6.0 / 54.29.105
Библиотека кодирования : XviD4PSP 6.0 / 54.29.105
Видео
Идентификатор : 1
Формат : AVC
Формат/Информация : Advanced Video Codec
Профиль формата : High@L5.1
Параметр CABAC формата : Да
Параметр ReFrames формата : 5 кадров
Идентификатор кодека : V_MPEG4/ISO/AVC
Продолжительность : 54 м.
Битрейт : 8000 Кбит/сек
Ширина : 1920 пикселей
Высота : 1080 пикселей
Соотношение сторон : 16:9
Режим частоты кадров : Постоянный
Частота кадров : 23,976 кадра/сек
Цветовое пространство : YUV
Субдискретизация насыщенности : 4:2:0
Битовая глубина : 8 бит
Тип развёртки : Прогрессивная
Бит/(Пиксели*Кадры) : 0.161
Размер потока : 3,01 Гбайт (91%)
Библиотека кодирования : x264 core 128 r2216M 198a7ea
Настройки программы : cabac=1 / ref=6 / deblock=1:-1:-1 / analyse=0x3:0x133 / me=tesa / subme=10 / psy=1 / psy_rd=1.00:0.15 / mixed_ref=1 / me_range=16 / chroma_me=1 / trellis=2 / 8x8dct=1 / cqm=0 / deadzone=21,11 / fast_pskip=1 / chroma_qp_offset=-3 / threads=8 / lookahead_threads=1 / sliced_threads=0 / nr=0 / decimate=1 / interlaced=0 / bluray_compat=0 / constrained_intra=0 / bframes=6 / b_pyramid=1 / b_adapt=2 / b_bias=0 / direct=3 / weightb=1 / open_gop=0 / weightp=2 / keyint=230 / keyint_min=23 / scenecut=40 / intra_refresh=0 / rc_lookahead=40 / rc=2pass / mbtree=1 / bitrate=8000 / ratetol=1.0 / qcomp=0.60 / qpmin=10 / qpmax=51 / qpstep=4 / cplxblur=20.0 / qblur=0.5 / ip_ratio=1.40 / aq=1:1.00
Язык : English
Default : Да
Forced : Нет
Аудио
Идентификатор : 2
Формат : AC-3
Формат/Информация : Audio Coding 3
Расширение режима : CM (complete main)
Параметр Endianness формата : Big
Идентификатор кодека : A_AC3
Продолжительность : 54 м.
Вид битрейта : Постоянный
Битрейт : 640 Кбит/сек
Каналы : 6 каналов
Расположение каналов : Front: L C R, Side: L R, LFE
Частота : 48,0 КГц
Битовая глубина : 16 бит
Метод сжатия : С потерями
Задержка видео : 27 мс.
Размер потока : 251 Мбайт (7%)
Язык : Russian
Default : Да
Forced : Нет
Спартак [Приквел] - Боги арены
Общее
Уникальный идентификатор : 58327283607171674374426560202853077622 (0x2BE16D1BED4E6F6B6D152828A6B85276)
Полное имя : G:\Video\Спартак (1080p)\Спартак [Приквел] - Боги арены (1080p)\Спартак [Приквел] - Боги арены - 01 (1080p).mkv
Формат : Matroska
Версия формата : Version 2
Размер файла : 3,19 Гбайт
Продолжительность : 52 м.
Общий поток : 8642 Кбит/сек
Дата кодирования : UTC 2012-03-07 19:27:44
Программа кодирования : XviD4PSP 6.0 / 54.29.105
Библиотека кодирования : XviD4PSP 6.0 / 54.29.105
Видео
Идентификатор : 1
Формат : AVC
Формат/Информация : Advanced Video Codec
Профиль формата : High@L5.1
Параметр CABAC формата : Да
Параметр ReFrames формата : 5 кадров
Идентификатор кодека : V_MPEG4/ISO/AVC
Продолжительность : 52 м.
Битрейт : 8000 Кбит/сек
Ширина : 1920 пикселей
Высота : 1080 пикселей
Соотношение сторон : 16:9
Режим частоты кадров : Постоянный
Частота кадров : 23,976 кадра/сек
Цветовое пространство : YUV
Субдискретизация насыщенности : 4:2:0
Битовая глубина : 8 бит
Тип развёртки : Прогрессивная
Бит/(Пиксели*Кадры) : 0.161
Размер потока : 2,89 Гбайт (91%)
Заголовок : by_genkasper
Библиотека кодирования : x264 core 128 r2216M 198a7ea
Настройки программы : cabac=1 / ref=6 / deblock=1:-1:-1 / analyse=0x3:0x133 / me=tesa / subme=10 / psy=1 / psy_rd=1.00:0.15 / mixed_ref=1 / me_range=16 / chroma_me=1 / trellis=2 / 8x8dct=1 / cqm=0 / deadzone=21,11 / fast_pskip=1 / chroma_qp_offset=-3 / threads=8 / lookahead_threads=1 / sliced_threads=0 / nr=0 / decimate=1 / interlaced=0 / bluray_compat=0 / constrained_intra=0 / bframes=6 / b_pyramid=1 / b_adapt=2 / b_bias=0 / direct=3 / weightb=1 / open_gop=0 / weightp=2 / keyint=230 / keyint_min=23 / scenecut=40 / intra_refresh=0 / rc_lookahead=40 / rc=2pass / mbtree=1 / bitrate=8000 / ratetol=1.0 / qcomp=0.60 / qpmin=10 / qpmax=51 / qpstep=4 / cplxblur=20.0 / qblur=0.5 / ip_ratio=1.40 / aq=1:1.00
Язык : English
Default : Да
Forced : Нет
Аудио
Идентификатор : 2
Формат : AC-3
Формат/Информация : Audio Coding 3
Расширение режима : CM (complete main)
Параметр Endianness формата : Big
Идентификатор кодека : A_AC3
Продолжительность : 52 м.
Вид битрейта : Постоянный
Битрейт : 640 Кбит/сек
Каналы : 6 каналов
Расположение каналов : Front: L C R, Side: L R, LFE
Частота : 48,0 КГц
Битовая глубина : 16 бит
Метод сжатия : С потерями
Задержка видео : 27 мс.
Размер потока : 242 Мбайт (7%)
Заголовок : LostFilm
Язык : Russian
Default : Да
Forced : Нет
Спартак [2-й сезон] - Месть
Общее
Уникальный идентификатор : 291526476156420251820444973574301990601 (0xDB51F4FE06BD5226A6B30DD5ADE4BEC9)
Полное имя : G:\Video\Спартак (1080p)\Спартак [2-й сезон] - Месть (1080p)\Спартак [2-й сезон] - Месть - 01 (1080p).mkv
Формат : Matroska
Версия формата : Version 2
Размер файла : 3,48 Гбайт
Продолжительность : 57 м.
Общий поток : 8644 Кбит/сек
Дата кодирования : UTC 2012-01-31 10:48:30
Программа кодирования : XviD4PSP 6.0 / 54.29.105
Библиотека кодирования : XviD4PSP 6.0 / 54.29.105
Видео
Идентификатор : 1
Формат : AVC
Формат/Информация : Advanced Video Codec
Профиль формата : High@L5.1
Параметр CABAC формата : Да
Параметр ReFrames формата : 5 кадров
Идентификатор кодека : V_MPEG4/ISO/AVC
Продолжительность : 57 м.
Битрейт : 8000 Кбит/сек
Ширина : 1920 пикселей
Высота : 1080 пикселей
Соотношение сторон : 16:9
Режим частоты кадров : Постоянный
Частота кадров : 23,976 кадра/сек
Цветовое пространство : YUV
Субдискретизация насыщенности : 4:2:0
Битовая глубина : 8 бит
Тип развёртки : Прогрессивная
Бит/(Пиксели*Кадры) : 0.161
Размер потока : 3,16 Гбайт (91%)
Библиотека кодирования : x264 core 128 r2216M 198a7ea
Настройки программы : cabac=1 / ref=6 / deblock=1:-1:-1 / analyse=0x3:0x133 / me=tesa / subme=10 / psy=1 / psy_rd=1.00:0.15 / mixed_ref=1 / me_range=16 / chroma_me=1 / trellis=2 / 8x8dct=1 / cqm=0 / deadzone=21,11 / fast_pskip=1 / chroma_qp_offset=-3 / threads=8 / lookahead_threads=1 / sliced_threads=0 / nr=0 / decimate=1 / interlaced=0 / bluray_compat=0 / constrained_intra=0 / bframes=6 / b_pyramid=1 / b_adapt=2 / b_bias=0 / direct=3 / weightb=1 / open_gop=0 / weightp=2 / keyint=230 / keyint_min=23 / scenecut=40 / intra_refresh=0 / rc_lookahead=40 / rc=2pass / mbtree=1 / bitrate=8000 / ratetol=1.0 / qcomp=0.60 / qpmin=10 / qpmax=51 / qpstep=4 / cplxblur=20.0 / qblur=0.5 / ip_ratio=1.40 / aq=1:1.00
Язык : English
Default : Да
Forced : Нет
Аудио
Идентификатор : 2
Формат : AC-3
Формат/Информация : Audio Coding 3
Расширение режима : CM (complete main)
Параметр Endianness формата : Big
Идентификатор кодека : A_AC3
Продолжительность : 57 м.
Вид битрейта : Постоянный
Битрейт : 640 Кбит/сек
Каналы : 6 каналов
Расположение каналов : Front: L C R, Side: L R, LFE
Частота : 48,0 КГц
Битовая глубина : 16 бит
Метод сжатия : С потерями
Задержка видео : 27 мс.
Размер потока : 264 Мбайт (7%)
Заголовок : LostFilm
Язык : Russian
Default : Да
Forced : Нет
Спартак [3-й сезон] - Война проклятых
Общее
Уникальный идентификатор : 35890408471763605306552011600617287731 (0x1B003DC1DA43CAFBC3C458952F583033)
Полное имя : G:\Video\Спартак (1080p)\Спартак [3-й сезон] - Война проклятых (1080p)\Спартак [3-й сезон] - Война проклятых - 01 (1080p).mkv
Формат : Matroska
Версия формата : Version 2
Размер файла : 3,11 Гбайт
Продолжительность : 51 м.
Общий поток : 8642 Кбит/сек
Дата кодирования : UTC 1970-01-01 00:00:02
Программа кодирования : XviD4PSP 6.0 / 54.29.105
Библиотека кодирования : XviD4PSP 6.0 / 54.29.105
Видео
Идентификатор : 1
Формат : AVC
Формат/Информация : Advanced Video Codec
Профиль формата : High@L5.1
Параметр CABAC формата : Да
Параметр ReFrames формата : 5 кадров
Идентификатор кодека : V_MPEG4/ISO/AVC
Продолжительность : 51 м.
Битрейт : 8000 Кбит/сек
Ширина : 1920 пикселей
Высота : 1080 пикселей
Соотношение сторон : 16:9
Режим частоты кадров : Постоянный
Частота кадров : 23,976 кадра/сек
Цветовое пространство : YUV
Субдискретизация насыщенности : 4:2:0
Битовая глубина : 8 бит
Тип развёртки : Прогрессивная
Бит/(Пиксели*Кадры) : 0.161
Размер потока : 2,81 Гбайт (91%)
Заголовок : Spartacus.war.of.the.damned.s03e01.1080p.bluray.x264-rovers
Библиотека кодирования : x264 core 128 r2216M 198a7ea
Настройки программы : cabac=1 / ref=6 / deblock=1:-1:-1 / analyse=0x3:0x133 / me=tesa / subme=10 / psy=1 / psy_rd=1.00:0.15 / mixed_ref=1 / me_range=16 / chroma_me=1 / trellis=2 / 8x8dct=1 / cqm=0 / deadzone=21,11 / fast_pskip=1 / chroma_qp_offset=-3 / threads=8 / lookahead_threads=1 / sliced_threads=0 / nr=0 / decimate=1 / interlaced=0 / bluray_compat=0 / constrained_intra=0 / bframes=6 / b_pyramid=1 / b_adapt=2 / b_bias=0 / direct=3 / weightb=1 / open_gop=0 / weightp=2 / keyint=230 / keyint_min=23 / scenecut=40 / intra_refresh=0 / rc_lookahead=40 / rc=2pass / mbtree=1 / bitrate=8000 / ratetol=1.0 / qcomp=0.60 / qpmin=10 / qpmax=51 / qpstep=4 / cplxblur=20.0 / qblur=0.5 / ip_ratio=1.40 / aq=1:1.00
Язык : English
Default : Да
Forced : Нет
Аудио
Идентификатор : 2
Формат : AC-3
Формат/Информация : Audio Coding 3
Расширение режима : CM (complete main)
Параметр Endianness формата : Big
Идентификатор кодека : A_AC3
Продолжительность : 51 м.
Вид битрейта : Постоянный
Битрейт : 640 Кбит/сек
Каналы : 6 каналов
Расположение каналов : Front: L C R, Side: L R, LFE
Частота : 48,0 КГц
Битовая глубина : 16 бит
Метод сжатия : С потерями
Задержка видео : 27 мс.
Размер потока : 236 Мбайт (7%)
Заголовок : AC3 5.1 @ 640 kbbs - LostFilm
Язык : Russian
Default : Да
Forced : Нет

Кадры из фильма



Последний раз редактировалось: mihis (2014-10-01 10:24), всего редактировалось 1 раз
[Торрент-статистика]
[Профиль]  [ЛС] 
Показать сообщения:    
Ответить на тему

Текущее время: Сегодня 18:02

Часовой пояс: GMT + 4



Вы не можете начинать темы
Вы не можете отвечать на сообщения
Вы не можете редактировать свои сообщения
Вы не можете удалять свои сообщения
Вы не можете голосовать в опросах
Вы не можете прикреплять файлы к сообщениям
Вы не можете скачивать файлы