Возмездие / Revenge / Сезон: 4 / Серии: 1-10 из 22 (Мэтт Эрл Бисли, Филлип Нойс) [2014, драма, мистика, триллер, WEB-DL 720p] DVO (NewStudio) + Original

Ответить на тему
 
Автор
Сообщение

awk05 ®

Пол:

Стаж: 6 лет 4 месяца

Сообщений: 1348

Репутация: 275 [+] [-]

Откуда: Западная Украина Ривне

Пост 01-Окт-2014 01:00

[Цитировать] 

-- --Возмездие / Revenge -- Год выпуска: 2014
Страна: США
Жанр: драма, мистика, триллер
Сезон/Серия: Сезон: 4 /Серия 1-10 из 22
Продолжительность: 22 х 00:43:00
Перевод: Профессиональный (двухголосый закадровый) + Original
Озвучка / Автор перевода: NewStudio
Субтитры: отсутствуют--Режиссёр: Мэтт Эрл Бисли, Филлип Нойс--
В ролях: Эмили ВанКэмп (Эмили Торн), Робби Амелл (Adam), Макс Мартини (Frank Stevens), Стефен Эллиотт (The Body), Криста Б. Аллен (Charlotte Grayson), Mike Allison (Party Guest), Ric Bagoly (Yacht Partygoer), Джошуа Боуман (Daniel Grayson), Кристина Чанг (Karrie Thurgood), Генри Черни (Conrad Grayson), Ashley Driver (Tiffany), Кейт Харрис (Doug Reid), Эмили Элин Линд (Abigail)--
Описание: Действие сериала происходит в Хамптонсе, богатом городке в Саффолке, на Лонг-Айленде, Нью-Йорк. В город приезжает миллиардерша Эмили Торн (Эмили Ванкэмп), которая на самом деле является Амандой Кларк. Аманда — дочь Дэвида Кларка, считающегося виновным в гибели пассажиров рейса 197 4 июня 1993 года. 31 августа 1993 года он был арестован агентами ФБР и осужден 9 июня 1995 года. Против него свидетельствовали друзья и коллеги Виктория и Конрад Грейсоны (Мэделин Стоу и Генри Черни), секретарша Лидия Дэвис (Эмбер Валетта) и многие другие. У Дэвида был роман с Викторией, которой пришлось отвернуться от него, когда Конрад пригрозил ей тем, что она может лишиться из-за этого их общего сына, Дэниела (Джошуа Боуман). Дэвид был осуждён за государственную измену и спустя несколько лет умер в тюрьме. После ареста Дэвида Аманду отправили сначала в детский дом, а потом в исправительное учреждение для несовершеннолетних, где она познакомилась с Эмили Торн (Маргарита Левиева). Перед отъездом в детский дом Аманда отдала своему другу Джеку Портеру (Ник Векслер) собаку Сэмми. Когда девушке исполнилось восемнадцать лет и она вышла из колонии для несовершеннолетних, её нашёл Нолан Росс, мультимиллиардер, который достиг успеха благодаря помощи Дэвида. Он сообщает, что её отец был ошибочно осуждён, и ей принадлежит 49 процентов акций его компании.
Спустя годы Аманда решает отомстить тем людям, которые разрушили жизнь её семьи, и возвращается в Хамптонс под именем Эмили Торн. Она арендует тот дом, где жила раньше с отцом, у его нынешней хозяйки — Лидии Дэвис. Лидия становится её первой целью в списке лиц, ответственных за вынесение обвинительного приговора её отцу. Между тем, у неё начинается роман с сыном Виктории Грейсон — Дэниелом, что вызывает озабоченность со стороны Виктории, и женщина начинает наводить справки о прошлом новоприбывшей соседки.
В пилотном эпизоде была показана помолвка Эмили и Дэниэля, которая произошла спустя пять месяцев после прибытия Эмили в город, и его убийство. Также каждый эпизод содержит сцены-флэшбеки в разные временные промежутки героинь Виктории и Аманды.--
Качество: WEB-DL 720p
Формат видео: MKV
Видео кодек: AVC (High@L3.1)
Аудио кодек: AC-3
Видео: AVC, 1280x720 (16:9), 23.976 fps, 4 151 Kbps (0.188 bit/pixel)
Аудио 1: AC-3, 48.0 KHz, 6 ch, 384 Kbps, CBR, 16 bits [Русский]
Аудио 2: AC-3, 48.0 KHz, 6 ch, 384 Kbps, CBR, 16 bits [Английский]

Список серий

01. Execution / Исполнение
02. Disclosure / Разоблачение
03. Ashes / Прах
04. Meteor / Метеор
05. Repercussions / Последствия
06. Damage / Урон
07. Ambush / Засада
08. Contact / Контакт
09. Intel / Информация
10. Atonement / Искупление

Кадры из фильма

Тех. данные (MI)

Код:
Общее
Уникальный идентификатор                 : 170650428107504277642852374680617478126 (0x806213B31781CCB58E870CD621A5E7EE)
Полное имя                               : E:\Сериалы новые\Revenge.s04.NewStudio\Revenge.s04e01.WEBDL.720p.NewStudio.TV.mkv
Формат                                   : Matroska
Версия формата                           : Version 2
Размер файла                             : 1,51 Гбайт
Продолжительность                        : 43 м.
Общий поток                              : 5019 Кбит/сек
Дата кодирования                         : UTC 2014-09-30 18:48:42
Программа кодирования                    : mkvmerge v2.9.9 ('Tutu') built on Nov 25 2009 21:13:32
Библиотека кодирования                   : libebml v0.7.9 + libmatroska v0.8.1
Attachements                             : small_cover.jpg / cover.jpg / cover_land.jpg / small_cover_land.jpg
Видео
Идентификатор                            : 1
Формат                                   : AVC
Формат/Информация                        : Advanced Video Codec
Профиль формата                          : High@L3.1
Параметр CABAC формата                   : Нет
Параметр ReFrames формата                : 2 кадра
Идентификатор кодека                     : V_MPEG4/ISO/AVC
Продолжительность                        : 43 м.
Битрейт                                  : 4151 Кбит/сек
Ширина                                   : 1280 пикселей
Высота                                   : 720 пикселей
Соотношение сторон                       : 16:9
Режим частоты кадров                     : Постоянный
Частота кадров                           : 23,976 кадра/сек
Цветовое пространство                    : YUV
Субдискретизация насыщенности            : 4:2:0
Битовая глубина                          : 8 бит
Тип развёртки                            : Прогрессивная
Бит/(Пиксели*Кадры)                      : 0.188
Размер потока                            : 1,25 Гбайт (83%)
Язык                                     : English
Default                                  : Нет
Forced                                   : Нет
Основные цвета                           : BT.709
Характеристики трансфера                 : BT.709
Коэффициенты матрицы                     : BT.709
Аудио #1
Идентификатор                            : 2
Формат                                   : AC-3
Формат/Информация                        : Audio Coding 3
Расширение режима                        : CM (complete main)
Параметр Endianness формата              : Big
Идентификатор кодека                     : A_AC3
Продолжительность                        : 43 м.
Вид битрейта                             : Постоянный
Битрейт                                  : 384 Кбит/сек
Каналы                                   : 6 каналов
Расположение каналов                     : Front: L C R, Side: L R, LFE
Частота                                  : 48,0 КГц
Битовая глубина                          : 16 бит
Метод сжатия                             : С потерями
Размер потока                            : 119 Мбайт (8%)
Заголовок                                : NewStudio.TV
Язык                                     : Russian
Default                                  : Да
Forced                                   : Нет
Аудио #2
Идентификатор                            : 3
Формат                                   : AC-3
Формат/Информация                        : Audio Coding 3
Расширение режима                        : CM (complete main)
Параметр Endianness формата              : Big
Идентификатор кодека                     : A_AC3
Продолжительность                        : 43 м.
Вид битрейта                             : Постоянный
Битрейт                                  : 384 Кбит/сек
Каналы                                   : 6 каналов
Расположение каналов                     : Front: L C R, Side: L R, LFE
Частота                                  : 48,0 КГц
Битовая глубина                          : 16 бит
Метод сжатия                             : С потерями
Размер потока                            : 119 Мбайт (8%)
Язык                                     : English
Default                                  : Нет
Forced                                   : Нет

Внимание! Раздача ведётся путём добавления новых серий!

Внимание! Раздача ведётся путём добавления новых серий; при каждом добавлении создётся новый торрент. Чтобы начать докачку новой серии, пользователям необходимо сделать следующее:
(1) остановить скачивание,
(2) удалить старый торрент у себя из клиента (старые серии удалять не надо),
(3) скачать новый торрент и запустить его у себя в клиенте вместо старого, при этом указать клиенту путь в старую папку куда и должно происходить скачивание новых серий.
Ваш клиент при этом должен произвести хеширование (проверку) старой папки (если не производит сам - помогите ему сделать это), и будет докачивать только те серии которых у вас ещё нет. Старые серии при этом не удаляются, а продолжают раздаваться!
Eсли вы уже удалили старые серии, то предотвратить повторную закачку старых серий можно, отжав галочку в соответсвующих местах при запуске нового торрента.
«СЕЗОН 1» «СЕЗОН 2» «СЕЗОН 3» «СЕЗОН 4»

_________________
[Торрент-статистика]
[Профиль]  [ЛС] 
Показать сообщения:    
Ответить на тему

Текущее время: Сегодня 09:36

Часовой пояс: GMT + 4



Вы не можете начинать темы
Вы не можете отвечать на сообщения
Вы не можете редактировать свои сообщения
Вы не можете удалять свои сообщения
Вы не можете голосовать в опросах
Вы не можете прикреплять файлы к сообщениям
Вы не можете скачивать файлы