Восприятие/ Perception / Сезон:3 /Серия 1-5 из 14 (Грег Биман, Кеннет Биллер, Крис Мисиано) [2014 г., Драма, криминал, детектив, WEB-DL 720p] To4ka + Original

Ответить на тему
 
Автор
Сообщение

awk05 ®

Пол:

Стаж: 6 лет 4 месяца

Сообщений: 1348

Репутация: 275 [+] [-]

Откуда: Западная Украина Ривне

Пост 30-Сен-2014 20:47

[Цитировать] 

--Восприятие/ Perception-- Год выпуска: 2012
Страна: США | TNT
Жанр: Драма, криминал, детектив
Сезон/Серия: Сезон:3 /Серия 1-5 из 14
Продолжительность: 14 х ~ 00:42:00 минуты
Перевод: Любительский (многоголосый, закадровый) + Original
Озвучка / Автор перевода: To4ka
Озвучка: Андрей Хомяков, Марина Комчарукова, Ирина Грачева и Александр Нелюбин
Субтитры: нет--Режиссёр: Грег Биман, Кеннет Биллер, Крис Мисиано и др.--В ролях: Эрик МакКормак, Рэйчел Ли Кук, Келли Роуэн, Эрджей Смит, Джонатан Скарф, Кристофер Чен, Лиза Бейнс, Джимми Беннетт, Бриджет Риган, ЛеВар Бёртон...--Описание: Доктор Дэниел Пирс — талантливый, но эксцентричный нейрофизиолог, которого пригласили в ФБР для оказания помощи в расследовании наиболее сложных дел. Доктор Пирс работает в тесном сотрудничестве с Кейт Моретти, его бывшей студенткой, которая и завербовала его для работы с Бюро. Также в команде есть Макс Левики — ассистент доктора Пирса и Натали Винсент — его лучший друг.--Качество видео:WEB-DL 720p
Формат видео: MKV
Видео кодек: AVC (High@L3.1)
Аудио кодек: AC3
Видео: 1280x720 (16:9), 23,976 кадра/сек, 4 166 Кбит/сек, 0.189 Бит/(Пиксели*Кадры)
Аудио 1: AC-3, 48.0 KHz, 6 ch, 384 Kbps, CBR, 16 bits [Русский]
Аудио 2: AC-3, 48.0 KHz, 6 ch, 384 Kbps, CBR, 16 bits [ENG]-- --

Кадры из фильма

Тех. данные (MI)

Код:
General
Unique ID : 235951137628338266954411339563126252513 (0xB1828940475895D1847977984D1C63E1)
Complete name : Восприятие (сезон 3) 720р\Perception.s03e01.WEB-DL.720p.Rus.Eng.To4ka.TV.mkv
Format : Matroska
Format version : Version 1
File size : 1.51 GiB
Duration : 43mn 3s
Overall bit rate : 5 034 Kbps
Encoded date : UTC 2014-07-08 15:34:17
Writing application : mkvmerge v2.0.0 ('After The Rain Has Fallen') built on Jan 13 2007 19:58:56
Writing library : libebml v0.7.7 + libmatroska v0.8.0
Video
ID : 1
Format : AVC
Format/Info : Advanced Video Codec
Format profile : High@L3.1
Format settings, CABAC : No
Format settings, ReFrames : 2 frames
Codec ID : V_MPEG4/ISO/AVC
Duration : 43mn 3s
Bit rate : 4 166 Kbps
Width : 1 280 pixels
Height : 720 pixels
Display aspect ratio : 16:9
Frame rate mode : Constant
Frame rate : 23.976 fps
Color space : YUV
Chroma subsampling : 4:2:0
Bit depth : 8 bits
Scan type : Progressive
Bits/(Pixel*Frame) : 0.189
Stream size : 1.25 GiB (83%)
Language : English
Default : Yes
Forced : No
Color primaries : BT.709
Transfer characteristics : BT.709
Matrix coefficients : BT.709
Audio #1
ID : 2
Format : AC-3
Format/Info : Audio Coding 3
Mode extension : CM (complete main)
Format settings, Endianness : Big
Codec ID : A_AC3
Duration : 43mn 3s
Bit rate mode : Constant
Bit rate : 384 Kbps
Channel(s) : 6 channels
Channel positions : Front: L C R, Side: L R, LFE
Sampling rate : 48.0 KHz
Bit depth : 16 bits
Compression mode : Lossy
Stream size : 118 MiB (8%)
Title : To4ka.TV
Language : Russian
Default : Yes
Forced : No
Audio #2
ID : 3
Format : AC-3
Format/Info : Audio Coding 3
Mode extension : CM (complete main)
Format settings, Endianness : Big
Codec ID : A_AC3
Duration : 43mn 3s
Bit rate mode : Constant
Bit rate : 384 Kbps
Channel(s) : 6 channels
Channel positions : Front: L C R, Side: L R, LFE
Sampling rate : 48.0 KHz
Bit depth : 16 bits
Compression mode : Lossy
Stream size : 118 MiB (8%)
Language : English
Default : No
Forced : No

_________________
[Торрент-статистика]
[Профиль]  [ЛС] 
Показать сообщения:    
Ответить на тему

Текущее время: Сегодня 23:49

Часовой пояс: GMT + 4



Вы не можете начинать темы
Вы не можете отвечать на сообщения
Вы не можете редактировать свои сообщения
Вы не можете удалять свои сообщения
Вы не можете голосовать в опросах
Вы не можете прикреплять файлы к сообщениям
Вы не можете скачивать файлы