Мотив / Motive / Сезон: 2 / Серии: 1-5 из 13 (Дэвид Фрэйзи, Энди Микита, Стурла Гуннарссон) [2014, Триллер, драма, криминал, детектив, WEB-DL 720p] MVO (ApofysTeam) + Original

Ответить на тему
 
Автор
Сообщение

awk05 ®

Пол:

Стаж: 6 лет 4 месяца

Сообщений: 1348

Репутация: 275 [+] [-]

Откуда: Западная Украина Ривне

Пост 28-Сен-2014 19:39

[Цитировать] 

--Мотив / Motive-- Год выпуска: 2014
Страна: Канада
Жанр: Триллер, драма, криминал, детектив
Сезон/Серия: Сезон:2 / Серия 1-5 из 13
Продолжительность: 13 х ~ 00:43:00 мин
Перевод: Любительский (многоголосый закадровый)
Озвучка / Автор перевода: ApofysTeam
Субтитры: отсутствуют--Режиссёр: Дэвид Фрэйзи, Стурла Гуннарссон, Энди Микита--В ролях: Кристин Леман, Луис Феррейра, Брендан Пенни, Роджер Р. Кросс, Лорен Холли, Камерон Брайт, Уоррен Кристи, Валери Тиан, Лаура Меннелл, Серж Уд--Описание: Каждый эпизод начинается с раскрытия не только личности жертвы, но и убийцы. Энергичный Ванкуверский детектив отдела убийств Энджи Флинн, соединяя кусочки головоломки, руководствуется не вопросом "Кто это сделал?", а вопросом "Зачем?". Что общего у жертвы и убийцы? Каков мотив?--Качество видео: WEB-DL 720p
Формат видео: MKV
Видео кодек: AVC (High@L3.1)
Аудио кодек: AC-3
Видео: AVC, 1280x720 (16:9), 23.976 fps, 4 142 Kbps (0.187 bit/pixel)
Аудио 1: AC-3, 48.0 KHz, 2 ch, 192 Kbps, CBR, 16 bits [Русский]
Аудио 2: AC-3, 48.0 KHz, 6 ch, 384 Kbps, CBR, 16 bits [Английский] -- --

Список серий

01 Raw Deal / Сырое соглашение
02 They Made Me a Crimina / lОни сделали меня преступником
03 Overboard / За борт
04 Deception / Обман
05 Dead End / Тупик
06 Bad Blonde / Плохая блондинка
07 Pitfall / Ловушка
08 Angels With Dirty Faces / Ангелы с грязными лицами
09 Abandoned / Заброшенные
10 Nobody Lives Forever / Никто не живет вечно
11 A Bullet for Joey / Пуля для Джоуи
12 Kiss Of Death / Поцелуй смерти
13 For You I Die/ Для Вас я умер

Кадры из фильма

Тех. данные (MI)

Код:
Общее
Уникальный идентификатор                 : 208443854933950318781372821703259320824 (0x9CD0D381748B76F6BEAB0FC9D827F1F8)
Полное имя                               : E:\тест\Motive_S02_720p_rus\Motive.S02E01.720p.rus.ApofysTeam.mkv
Формат                                   : Matroska
Версия формата                           : Version 2
Размер файла                             : 1,44 Гбайт
Продолжительность                        : 42 м.
Общий поток                              : 4813 Кбит/сек
Дата кодирования                         : UTC 2014-07-26 17:14:31
Программа кодирования                    : mkvmerge v4.5.0 ('Speed of Light') сборка от Feb  6 2011 12:51:39
Библиотека кодирования                   : libebml v1.2.0 + libmatroska v1.1.0
Видео
Идентификатор                            : 1
Формат                                   : AVC
Формат/Информация                        : Advanced Video Codec
Профиль формата                          : High@L3.1
Параметр CABAC формата                   : Нет
Параметр ReFrames формата                : 2 кадра
Идентификатор кодека                     : V_MPEG4/ISO/AVC
Продолжительность                        : 42 м.
Битрейт                                  : 4142 Кбит/сек
Ширина                                   : 1280 пикселей
Высота                                   : 720 пикселей
Соотношение сторон                       : 16:9
Режим частоты кадров                     : Постоянный
Частота кадров                           : 23,976 кадра/сек
Цветовое пространство                    : YUV
Субдискретизация насыщенности            : 4:2:0
Битовая глубина                          : 8 бит
Тип развёртки                            : Прогрессивная
Бит/(Пиксели*Кадры)                      : 0.187
Размер потока                            : 1,24 Гбайт (86%)
Язык                                     : English
Default                                  : Да
Forced                                   : Нет
Основные цвета                           : BT.709
Характеристики трансфера                 : BT.709
Коэффициенты матрицы                     : BT.709
Аудио #1
Идентификатор                            : 2
Формат                                   : AC-3
Формат/Информация                        : Audio Coding 3
Расширение режима                        : CM (complete main)
Параметр Endianness формата              : Big
Идентификатор кодека                     : A_AC3
Продолжительность                        : 42 м.
Вид битрейта                             : Постоянный
Битрейт                                  : 192 Кбит/сек
Каналы                                   : 2 канала
Расположение каналов                     : Front: L R
Частота                                  : 48,0 КГц
Битовая глубина                          : 16 бит
Метод сжатия                             : С потерями
Размер потока                            : 58,8 Мбайт (4%)
Язык                                     : Russian
Default                                  : Да
Forced                                   : Нет
Аудио #2
Идентификатор                            : 3
Формат                                   : AC-3
Формат/Информация                        : Audio Coding 3
Расширение режима                        : CM (complete main)
Параметр Endianness формата              : Big
Идентификатор кодека                     : A_AC3
Продолжительность                        : 42 м.
Вид битрейта                             : Постоянный
Битрейт                                  : 384 Кбит/сек
Каналы                                   : 6 каналов
Расположение каналов                     : Front: L C R, Side: L R, LFE
Частота                                  : 48,0 КГц
Битовая глубина                          : 16 бит
Метод сжатия                             : С потерями
Размер потока                            : 118 Мбайт (8%)
Язык                                     : English
Default                                  : Нет
Forced                                   : Нет

_________________
[Торрент-статистика]
[Профиль]  [ЛС] 
Показать сообщения:    
Ответить на тему

Текущее время: Сегодня 09:06

Часовой пояс: GMT + 4



Вы не можете начинать темы
Вы не можете отвечать на сообщения
Вы не можете редактировать свои сообщения
Вы не можете удалять свои сообщения
Вы не можете голосовать в опросах
Вы не можете прикреплять файлы к сообщениям
Вы не можете скачивать файлы