Мотив / Motive / Сезон: 1 / Серии: 1-13 из 13 (Дэвид Фрэйзи, Стурла Гуннарссон, Энди Микита) [2013, Триллер, драма, криминал, детектив, WEB-DL 720p] VO (Apofys) + Original

Ответить на тему
 
Автор
Сообщение

awk05 ®

Пол:

Стаж: 6 лет 4 месяца

Сообщений: 1348

Репутация: 275 [+] [-]

Откуда: Западная Украина Ривне

Пост 28-Сен-2014 19:10

[Цитировать] 

--Мотив / Motive-- Год выпуска: 2013
Страна: Канада
Жанр: Триллер, драма, криминал, детектив
Сезон/Серия: Сезон:1 / Серия 1-13 из 13
Продолжительность: 13 х ~ 00:43:00 мин
Перевод: 1-7 серии - любительский (одноголосый закадровый)
8-13 серии - любительский (многоголосый закадровый)
Озвучка / Автор перевода: ApofysTeam
Субтитры: отсутствуют--Режиссёр: Дэвид Фрэйзи, Стурла Гуннарссон, Энди Микита--В ролях: Кристин Леман, Луис Феррейра, Брендан Пенни, Роджер Р. Кросс, Лорен Холли, Камерон Брайт, Уоррен Кристи, Валери Тиан, Лаура Меннелл, Серж Уд--Описание: Каждый эпизод начинается с раскрытия не только личности жертвы, но и убийцы. Энергичный Ванкуверский детектив отдела убийств Энджи Флинн, соединяя кусочки головоломки, руководствуется не вопросом "Кто это сделал?", а вопросом "Зачем?". Что общего у жертвы и убийцы? Каков мотив?--Качество видео: WEB-DL 720p
Формат видео: MKV
Видео кодек: AVC (High@L3.1)
Аудио кодек: AC-3
Видео: AVC, 1280x720 (16:9), 23.976 fps, 4 005 Kbps (0.181 bit/pixel)
Аудио 1: AC-3, 48.0 KHz, 2 ch, 192 Kbps, CBR, 16 bits [Русский]
Аудио 2: AC-3, 48.0 KHz, 6 ch, 384 Kbps, CBR, 16 bits [Английский] -- --

Список серий

01 Creeping Tom
02 Crimes of Passion
03 Pushover
04 Against All Odds
05 Public Enemy
06 Detour
07 Out of the Past
08 Undertow
09 Framed
10 Fallen Angel
11 Brute Force
12 Ruthless
13 The One Who Got Away

Кадры из фильма

Тех. данные (MI)

Код:
Общее
Уникальный идентификатор                 : 191019018948324347845509691610676252918 (0x8FB4ECC33B695596B000CB77734ED0F6)
Полное имя                               : E:\тест\Motive_S01_720p_rus\Motive.S01E01.720p.rus.apofys.mkv
Формат                                   : Matroska
Версия формата                           : Version 2
Размер файла                             : 1,41 Гбайт
Продолжительность                        : 43 м.
Общий поток                              : 4674 Кбит/сек
Дата кодирования                         : UTC 2013-07-10 23:20:10
Программа кодирования                    : mkvmerge v4.5.0 ('Speed of Light') сборка от Feb  6 2011 12:51:39
Библиотека кодирования                   : libebml v1.2.0 + libmatroska v1.1.0
Видео
Идентификатор                            : 1
Формат                                   : AVC
Формат/Информация                        : Advanced Video Codec
Профиль формата                          : High@L3.1
Параметр CABAC формата                   : Нет
Параметр ReFrames формата                : 2 кадра
Идентификатор кодека                     : V_MPEG4/ISO/AVC
Продолжительность                        : 43 м.
Битрейт                                  : 4005 Кбит/сек
Ширина                                   : 1280 пикселей
Высота                                   : 720 пикселей
Соотношение сторон                       : 16:9
Режим частоты кадров                     : Постоянный
Частота кадров                           : 23,976 кадра/сек
Цветовое пространство                    : YUV
Субдискретизация насыщенности            : 4:2:0
Битовая глубина                          : 8 бит
Тип развёртки                            : Прогрессивная
Бит/(Пиксели*Кадры)                      : 0.181
Размер потока                            : 1,21 Гбайт (86%)
Язык                                     : English
Default                                  : Да
Forced                                   : Нет
Основные цвета                           : BT.709
Характеристики трансфера                 : BT.709
Коэффициенты матрицы                     : BT.709
Аудио #1
Идентификатор                            : 2
Формат                                   : AC-3
Формат/Информация                        : Audio Coding 3
Расширение режима                        : CM (complete main)
Параметр Endianness формата              : Big
Идентификатор кодека                     : A_AC3
Продолжительность                        : 43 м.
Вид битрейта                             : Постоянный
Битрейт                                  : 192 Кбит/сек
Каналы                                   : 2 канала
Расположение каналов                     : Front: L R
Частота                                  : 48,0 КГц
Битовая глубина                          : 16 бит
Метод сжатия                             : С потерями
Размер потока                            : 59,3 Мбайт (4%)
Язык                                     : Russian
Default                                  : Да
Forced                                   : Нет
Аудио #2
Идентификатор                            : 3
Формат                                   : AC-3
Формат/Информация                        : Audio Coding 3
Расширение режима                        : CM (complete main)
Параметр Endianness формата              : Big
Идентификатор кодека                     : A_AC3
Продолжительность                        : 43 м.
Вид битрейта                             : Постоянный
Битрейт                                  : 384 Кбит/сек
Каналы                                   : 6 каналов
Расположение каналов                     : Front: L C R, Side: L R, LFE
Частота                                  : 48,0 КГц
Битовая глубина                          : 16 бит
Метод сжатия                             : С потерями
Размер потока                            : 119 Мбайт (8%)
Язык                                     : English
Default                                  : Нет
Forced                                   : Нет

_________________
[Торрент-статистика]
[Профиль]  [ЛС] 
Показать сообщения:    
Ответить на тему

Текущее время: Сегодня 01:02

Часовой пояс: GMT + 4



Вы не можете начинать темы
Вы не можете отвечать на сообщения
Вы не можете редактировать свои сообщения
Вы не можете удалять свои сообщения
Вы не можете голосовать в опросах
Вы не можете прикреплять файлы к сообщениям
Вы не можете скачивать файлы