На крючке / Eagle Eye (Ди Джей Карузо) [2008 г., Боевик, триллер, BDRip 1080p]

Ответить на тему
 
Автор
Сообщение

renta23 ®

Пол:

Стаж: 3 года 3 месяца

Сообщений: 44

Репутация: 38 [+] [-]

Откуда: Брянск

Пост 26-Сен-2014 12:03

[Цитировать] 

На крючке
Eagle Eye
--- Год выпуска: 2008
Страна: США, Германия
Жанр: Боевик, триллер
Продолжительность: 01:57:36--Перевод: Профессиональный (полное дублирование) - CEE
Перевод: Профессиональный (многоголосый закадровый) - Киномания
Перевод: Авторский (Одноголосый закадровый) x2 - А.Гаврилов, Ю.Сербин
Режиссер: Ди Джей Карузо
В ролях: Шиа ЛаБеф, Мишель Монахэн, Розарио Доусон, Майкл Чиклис, Энтони Маки, Этан Эмбри, Билли Боб Торнтон, Энтони Азизи, Камерон Бойс, Линн Коэн, Билл Смитрович, Чарльз Кэрролл, Уильям Сэдлер, Дебора Стрэндж, Dariush Kashani, Шон Кинни, Боб Моррисей, Дж. Патрик МакКормак, Лоренцо Эдуардо, Мэдилин Свитен, Жорже Палло---Описание: Юный бездельник живет беззаботной жизнью, в отличие от своего брата-близнеца, стремящегося добиться успеха во всех сферах жизни, пока… тот не погибает при загадочных обстоятельствах. В то же время у матери-одиночки Рэйчел пропадает ребенок, и, вскоре, незнакомцы обнаруживают, что их подставили и выставили террористами. Насильно внедренные в группировку, планирующую серию убийств, они вынуждены вместе искать пути к спасению своей жизни…
«Орлиный глаз» (оригинальное американское название) поставлен по рассказу Стивена Спилберга, который и должен был снимать ленту. Но режиссер занялся фильмом «Индиана Джонс и Королевство хрустального черепа» (2008) и передал штурвал Карузо, оставшись лишь исполнительным продюсером.

Качество: BDRip
Формат: MKV
Видео кодек: H264
Аудио кодек: AC3
Видео: MPEG4 Video (H264), 1920x800, 59.94fps, 12.0 Mbps
Аудио: Dolby AC3, 48000Hz, 6ch, 640 kbps - (Дублированный) CEE
Аудио: Dolby AC3, 48000Hz, 6ch, 448 kbps - (Многоголосый закадровый) Киномания
Аудио: Dolby AC3, 48000Hz, 6ch, 640 kbps - (Одноголосый закадровый) А.Гаврилов
Аудио: Dolby AC3, 48000Hz, 6ch, 640 kbps - (Одноголосый закадровый) Ю.Сербин
Аудио: Dolby AC3, 48000Hz, 6ch, 640 kbps - Английский
Субтитры: Русские x 2, Английские

Оригинальные чаптеры сохранены.
Сэмпл

MediaInfo:

General
Unique ID : 206006413551827409270703293982687945954 (0x9AFB645E0364F021B0D3E78596E0E4E2)
Complete name : F:Torrent 22008.На крючке.renta23.mkv
Format : Matroska
Format version : Version 4 / Version 2
File size : 12.3 GiB
Duration : 1h 57mn
Overall bit rate : 15.0 Mbps
Encoded date : UTC 2014-09-25 08:57:13
Writing application : mkvmerge v7.1.0 ('Good Love') 32bit built on Jul 27 2014 12:59:18
Writing library : libebml v1.3.0 + libmatroska v1.4.1
DURATION : 01:50:05.356000000
NUMBER_OF_FRAMES : 3056
NUMBER_OF_BYTES : 6288472
_STATISTICS_WRITING_APP : mkvmerge v7.1.0 ('Good Love') 32bit built on Jul 27 2014 12:59:18
_STATISTICS_WRITING_DATE_UTC : 2014-09-25 08:57:13
_STATISTICS_TAGS : BPS DURATION NUMBER_OF_FRAMES NUMBER_OF_BYTES
Video
ID : 1
Format : AVC
Format/Info : Advanced Video Codec
Format profile : High@L4.1
Format settings, CABAC : Yes
Format settings, ReFrames : 3 frames
Codec ID : V_MPEG4/ISO/AVC
Duration : 1h 57mn
Bit rate : 12.0 Mbps
Width : 1 920 pixels
Height : 800 pixels
Display aspect ratio : 2.40:1
Frame rate mode : Constant
Frame rate : 59.940 fps
Color space : YUV
Chroma subsampling : 4:2:0
Bit depth : 8 bits
Scan type : Progressive
Bits/(Pixel*Frame) : 0.130
Stream size : 9.63 GiB (78%)
Title : На крючке / Eagle Eye (2008) / renta23
Writing library : x264 core 125 r2208 d9d2288
Encoding settings : cabac=1 / ref=4 / deblock=1:-1:-1 / analyse=0x3:0x133 / me=umh / subme=11 / psy=1 / psy_rd=1.15:0.25 / mixed_ref=1 / me_range=24 / chroma_me=1 / trellis=2 / 8x8dct=1 / cqm=0 / deadzone=21,11 / fast_pskip=0 / chroma_qp_offset=-4 / threads=12 / lookahead_threads=2 / sliced_threads=0 / nr=0 / decimate=1 / interlaced=0 / bluray_compat=0 / constrained_intra=0 / bframes=6 / b_pyramid=1 / b_adapt=2 / b_bias=0 / direct=3 / weightb=1 / open_gop=0 / weightp=2 / keyint=250 / keyint_min=25 / scenecut=40 / intra_refresh=0 / rc_lookahead=50 / rc=2pass / mbtree=1 / bitrate=12000 / ratetol=1.0 / qcomp=0.60 / qpmin=0 / qpmax=69 / qpstep=4 / cplxblur=20.0 / qblur=0.5 / ip_ratio=1.40 / aq=2:1.00
Language : English
Default : Yes
Forced : No
Audio #1
ID : 2
Format : AC-3
Format/Info : Audio Coding 3
Mode extension : CM (complete main)
Format settings, Endianness : Big
Codec ID : A_AC3
Duration : 1h 57mn
Bit rate mode : Constant
Bit rate : 640 Kbps
Channel(s) : 6 channels
Channel positions : Front: L C R, Side: L R, LFE
Sampling rate : 48.0 KHz
Bit depth : 16 bits
Compression mode : Lossy
Stream size : 538 MiB (4%)
Title : Дублированный - CEE
Language : Russian
Default : Yes
Forced : No
Audio #2
ID : 3
Format : AC-3
Format/Info : Audio Coding 3
Mode extension : CM (complete main)
Format settings, Endianness : Big
Codec ID : A_AC3
Duration : 1h 57mn
Bit rate mode : Constant
Bit rate : 448 Kbps
Channel(s) : 6 channels
Channel positions : Front: L C R, Side: L R, LFE
Sampling rate : 48.0 KHz
Bit depth : 16 bits
Compression mode : Lossy
Stream size : 377 MiB (3%)
Title : Многоголосый - Киномания
Language : Russian
Default : No
Forced : No
Audio #3
ID : 4
Format : AC-3
Format/Info : Audio Coding 3
Mode extension : CM (complete main)
Format settings, Endianness : Big
Codec ID : A_AC3
Duration : 1h 57mn
Bit rate mode : Constant
Bit rate : 640 Kbps
Channel(s) : 6 channels
Channel positions : Front: L C R, Side: L R, LFE
Sampling rate : 48.0 KHz
Bit depth : 16 bits
Compression mode : Lossy
Stream size : 538 MiB (4%)
Title : Одноголосый - А.Гаврилов
Language : Russian
Default : No
Forced : No
Audio #4
ID : 5
Format : AC-3
Format/Info : Audio Coding 3
Mode extension : CM (complete main)
Format settings, Endianness : Big
Codec ID : A_AC3
Duration : 1h 57mn
Bit rate mode : Constant
Bit rate : 640 Kbps
Channel(s) : 6 channels
Channel positions : Front: L C R, Side: L R, LFE
Sampling rate : 48.0 KHz
Bit depth : 16 bits
Compression mode : Lossy
Stream size : 538 MiB (4%)
Title : Одноголосый - Ю.Сербин
Language : Russian
Default : No
Forced : No
Audio #5
ID : 6
Format : AC-3
Format/Info : Audio Coding 3
Mode extension : CM (complete main)
Format settings, Endianness : Big
Codec ID : A_AC3
Duration : 1h 57mn
Bit rate mode : Constant
Bit rate : 640 Kbps
Channel(s) : 6 channels
Channel positions : Front: L C R, Side: L R, LFE
Sampling rate : 48.0 KHz
Bit depth : 16 bits
Compression mode : Lossy
Stream size : 538 MiB (4%)
Title : Английский
Language : English
Default : No
Forced : No
Text #1
ID : 7
Format : PGS
Muxing mode : zlib
Codec ID : S_HDMV/PGS
Codec ID/Info : The same subtitle format used on BDs/HD-DVDs
Language : Russian
Default : Yes
Forced : No
Text #2
ID : 8
Format : PGS
Muxing mode : zlib
Codec ID : S_HDMV/PGS
Codec ID/Info : The same subtitle format used on BDs/HD-DVDs
Language : Russian
Default : No
Forced : No
Text #3
ID : 9
Format : PGS
Muxing mode : zlib
Codec ID : S_HDMV/PGS
Codec ID/Info : The same subtitle format used on BDs/HD-DVDs
Language : English
Default : No
Forced : No
Menu
00:00:00.000 : en:Chapter 01
00:08:17.330 : en:Chapter 02
00:13:55.251 : en:Chapter 03
00:20:09.666 : en:Chapter 04
00:27:09.377 : en:Chapter 05
00:31:47.196 : en:Chapter 06
00:43:42.328 : en:Chapter 07
00:50:42.330 : en:Chapter 08
00:57:33.324 : en:Chapter 09
01:06:24.313 : en:Chapter 10
01:12:42.816 : en:Chapter 11
01:19:34.186 : en:Chapter 12
01:27:11.059 : en:Chapter 13
01:36:35.289 : en:Chapter 14
01:48:11.735 : en:Chapter 15
01:50:28.371 : en:Chapter 16
--

Скриншоты:

-
[Торрент-статистика]
[Профиль]  [ЛС] 

arabella.kiev

Стаж: 3 года 9 месяцев

Сообщений: 25

Репутация: 43 [+] [-]

Пост 27-Сен-2014 07:14 (спустя 19 часов)

[Цитировать] 

нравиться когда кроме русской дорожки есть оригинальная, прошу ещё добавлять Украинскую дорожку...спасибо
[Торрент-статистика]
[Профиль]  [ЛС] 

renta23 ®

Пол:

Стаж: 3 года 3 месяца

Сообщений: 44

Репутация: 38 [+] [-]

Откуда: Брянск

Пост 27-Сен-2014 09:43 (спустя 2 часа 29 минут)

[Цитировать] 

48030нравиться когда кроме русской дорожки есть оригинальная, прошу ещё добавлять Украинскую дорожку...спасибо
Ремукс, с которого я делал этот рип, был без украинской дорожки. Ваши пожелания учтём.
[Торрент-статистика]
[Профиль]  [ЛС] 

rim050377

Пол:

Стаж: 5 лет 11 месяцев

Сообщений: 6

Репутация: 0 [+] [-]

Пост 12-Фев-2017 16:51 (спустя 2 года 4 месяца)

[Цитировать] 

А скачавшие будут оставаться на раздаче? Или как всегда сбегут.
[Торрент-статистика]
[Профиль]  [ЛС] 

skameykin22

Пол:

Стаж: 5 месяцев 11 дней

Сообщений: 1

Репутация: 0 [+] [-]

Откуда: Санкт-Петербург

Пост 08-Июн-2017 22:35 (спустя 3 месяца 24 дня)

[Цитировать] 

Наверное, сбегут.
[Торрент-статистика]
[Профиль]  [ЛС] 
Показать сообщения:    
Ответить на тему

Текущее время: Сегодня 22:02

Часовой пояс: GMT + 4



Вы не можете начинать темы
Вы не можете отвечать на сообщения
Вы не можете редактировать свои сообщения
Вы не можете удалять свои сообщения
Вы не можете голосовать в опросах
Вы не можете прикреплять файлы к сообщениям
Вы не можете скачивать файлы