Код / The Code / Сезон:1 / Серия 1-6 из 6 (Шон Сит / Shawn Seet) [2014 г., Драма, Триллер, Криминал, WEB-DL 720p] MVO (AlexFilm) (Обновляемая)

Ответить на тему
 
Автор
Сообщение

awk05 ®

Пол:

Стаж: 6 лет 4 месяца

Сообщений: 1348

Репутация: 275 [+] [-]

Откуда: Западная Украина Ривне

Пост 26-Сен-2014 01:33

[Цитировать] 

--Код / The Code-- Год выпуска 2014
Страна: Австралия
Жанр: Драма, Триллер, Криминал
Сезон/Серия: Сезон:1 / Серия 1-6 из 6
Продолжительность: 6 х ~00:56:00
Перевод: Многоголосый закадровый, профессиональный + Original
Озвучка / Автор перевода: (AlexFilm)
Субтитры: отсутствуют--Режиссёр: Шон Сит / Shawn Seet --
В ролях: Дэн Спилман, Эшли Цукерман, Аделе Перович, Люси Лоулесс, Аден Янг, Дэвид Уэнэм, Аарон Педерсен, Адам Гарсия, Челси Престон-Крейфорд, Пол Тассоне, Дэниэл Уилли, Дэвид Робертс, Аарон Л. МакГрат...--Описание: К двум братьям совершенно случайно в руки попадает важная информация. Чтобы сохранить ее в тайне, сильные мира сего готовы пойти на крайние меры.--Качество видео: WEB-DL 720p
Формат видео: MKV
Видео кодек: AVC (Main@L3.1)
Аудио кодек: AC-3
Видео: AVC, 960@1280x718 (16:9), 25.000 fps, 4 058 Kbps (0.236 bit/pixel)
Аудио 1: AC-3, 48.0 KHz, 2 ch, 192 Kbps, CBR, 16 bits [Русский]
Аудио 2: AC-3, 48.0 KHz, 2 ch, 192 Kbps, CBR, 16 bits [Английский] -- --

Кадры из фильма

Тех. данные (MI)

Код:
Общее
Уникальный идентификатор : 201065152095148236345463840804195570483 (0x9743BD5E3E2C64D8B705A371FBAC9333)
Полное имя : E:\тест\The Code - Season 1 (AlexFilm) WEB-DL 720p\The.Code.s01e01.WEB-DL.720p.Rus.Eng.AlexFilm.mkv
Формат : Matroska
Версия формата : Version 4 / Version 2
Размер файла : 1,77 Гбайт
Продолжительность : 55 м.
Общий поток : 4532 Кбит/сек
Название фильма : The Code 1x01 @ AlexFilm
Дата кодирования : UTC 2014-09-25 13:03:05
Программа кодирования : mkvmerge v6.6.0 ('The Edge Of The In Between') built on Dec 1 2013 17:55:00
Библиотека кодирования : libebml v1.3.0 + libmatroska v1.4.1
Видео
Идентификатор : 1
Формат : AVC
Формат/Информация : Advanced Video Codec
Профиль формата : Main@L3.1
Параметр CABAC формата : Нет
Параметр ReFrames формата : 2 кадра
Идентификатор кодека : V_MPEG4/ISO/AVC
Продолжительность : 55 м.
Битрейт : 4058 Кбит/сек
Ширина : 960 пикселей
Высота : 718 пикселей
Соотношение сторон : 16:9
Режим частоты кадров : Постоянный
Частота кадров : 25,000 кадров/сек
Цветовое пространство : YUV
Субдискретизация насыщенности : 4:2:0
Битовая глубина : 8 бит
Тип развёртки : Прогрессивная
Бит/(Пиксели*Кадры) : 0.236
Размер потока : 1,58 Гбайт (90%)
Язык : English
Default : Да
Forced : Нет
Основные цвета : BT.709
Характеристики трансфера : BT.709
Коэффициенты матрицы : BT.709
Аудио #1
Идентификатор : 2
Формат : AC-3
Формат/Информация : Audio Coding 3
Расширение режима : CM (complete main)
Параметр Endianness формата : Big
Идентификатор кодека : A_AC3
Продолжительность : 55 м.
Вид битрейта : Постоянный
Битрейт : 192 Кбит/сек
Каналы : 2 канала
Расположение каналов : Front: L R
Частота : 48,0 КГц
Битовая глубина : 16 бит
Метод сжатия : С потерями
Размер потока : 76,8 Мбайт (4%)
Заголовок : DD2.0 AlexFilm
Язык : Russian
Default : Да
Forced : Нет
Аудио #2
Идентификатор : 3
Формат : AC-3
Формат/Информация : Audio Coding 3
Расширение режима : CM (complete main)
Параметр Endianness формата : Big
Идентификатор кодека : A_AC3
Продолжительность : 55 м.
Вид битрейта : Постоянный
Битрейт : 192 Кбит/сек
Каналы : 2 канала
Расположение каналов : Front: L R
Частота : 48,0 КГц
Битовая глубина : 16 бит
Метод сжатия : С потерями
Размер потока : 76,8 Мбайт (4%)
Заголовок : DD2.0 Original
Язык : English
Default : Нет
Forced : Нет

Внимание! Раздача ведётся путём добавления новых серий

Внимание! Раздача ведётся путём добавления новых серий; при каждом добавлении создаётся новый торрент.
Чтобы начать докачку новой серии, пользователям необходимо сделать следующее:
1. Остановить скачивание;
2. Удалить старый торрент у себя из клиента (старые серии удалять не надо);
3. Скачать новый торрент и запустить его у себя в клиенте вместо старого, при этом указать клиенту путь в старую папку куда и должно происходить скачивание новых серий. Ваш клиент при этом должен произвести хеширование (проверку) старой папки и будет докачивать только те серии, которых у вас ещё нет. Старые серии при этом не удаляются, а продолжают раздаваться! Eсли вы уже удалили старые серии, то предотвратить повторную закачку старых серий можно, отжав галочку в соответствующих местах при запуске нового торрента.

_________________
[Торрент-статистика]
[Профиль]  [ЛС] 
Показать сообщения:    
Ответить на тему

Текущее время: Сегодня 09:02

Часовой пояс: GMT + 4



Вы не можете начинать темы
Вы не можете отвечать на сообщения
Вы не можете редактировать свои сообщения
Вы не можете удалять свои сообщения
Вы не можете голосовать в опросах
Вы не можете прикреплять файлы к сообщениям
Вы не можете скачивать файлы