Черный список / The Blacklist / Сезон: 2 / Серии: 1-8 из 22 (Майкл В. Уоткинс, Винс Мисиано, Джо Карнахан) [2014 г., Драма, Детектив, Криминал,WEB-DLrip 720p] MVO LostFilm (Обновляемая)

Ответить на тему
 
Автор
Сообщение

awk05 ®

Пол:

Стаж: 6 лет 2 месяца

Сообщений: 1351

Репутация: 275 [+] [-]

Откуда: Западная Украина Ривне

Пост 25-Сен-2014 00:56

[Цитировать] 

--Черный список / The Blacklist«Never trust a criminal...until you have to»-- Год выпуска: 2014
Страна: США
Жанр: драма, криминал
Сезон/Серия: Сезон:2 /Серия 1-8 из 22
Продолжительность: 22 Х 00:45:08
Перевод: Профессиональный (многоголосый, закадровый)
Озвучка / Автор перевода: LostFilm
Субтитры: Нет--Режиссер: Майкл В. Уоткинс, Винс Мисиано, Джо Карнахан--В ролях: Джеймс Спэйдер (Raymond «Red» Reddington), Меган Бун (Elizabeth Keen), Диего Клаттенхофф (Donald Ressler), Гарри Дж. Ленникс (Harold Cooper), Райан Игголд (Tom Keen), Ильфенеш Хадера (Agent Jennifer Palmer), Чэнс Келли (Daniel Ryker), Джэми Джексон (Ranko Zamani), Дельфина Белль (Beth), Чарльз Бэйкер (Grey), Доннетта Лавиния Грэйс (FBI Lobby Guard), Аннет Махендру (Agent Rosen)--Описание: Всем знакомый актер Джеймс Спейдер, снимавшийся в таких кинолентах, как «Секс, ложь и видео», «Практика», снова блистает на экране. На этот раз в роли неуловимого афериста – преступника, за которым охотятся агенты из Федерального Бюро Расследований. Правительственных агентов наподобие Рэймонда Рэддингтона по прозвищу "Рэд" - тьма тьмущая. ФБР избавляется от Рэддингтона и вносит его в черный список, так что теплых чувств к своим работодателям этот парень не испытывает. После длительной и успешной службы он вдруг превратился в объект охоты.
Впрочем, к числу простаков Рэддингтон явно не относится. В ФБР он не отсиживался в кабинете, а был одним из лучших оперативников. И некоторым вещам выучился очень хорошо. Прятаться, к примеру.
Прошло несколько десятков лет, а вычислить Рэда так никто и не смог. Пока он сам не явился пред очи преследователей и не сдался. Все поражены, никто не понимает, зачем Рэддингтон пошел на столь необдуманный поступок. Здесь явно что-то нечисто, но никто из ФБР не в состоянии понять, где скрыт подвох. Что именно Рэддингтон приготовил для своих бывших сослуживцев? Это изощренный план мести оскорбленного агента или он на самом деле решил вот так придти и сдаться властям?--Качество видео: WEB-DLrip 720р
Формат видео: MKV
Видео кодек: AVC (High@L3.1)
Аудио кодек: AAC LC
Видео: AVC, 1280x718 (16:9), 23.976 fps, 4 000 Kbps (0.182 bit/pixel)
Аудио: AAC LC, 48.0 KHz, 2 ch, 231 Kbps, VBR [RUS] -- --

Список серий

01. Лорд Балтимор (Lord Baltimore)
02. Банк Монарх Дуглас (Monarch Douglas Bank)
03. Доктор Джеймс Ковингтон (Dr. James Covington)
04. Доктор Лайнус Крил (Dr. Linus Creel)
05. Фронт (The Front)
06. Картель Момбаса (The Mombasa Cartel)
07. Скимитар (The Scimitar)
08. Декабрист (The Decembrist)

Тех. данные (MI)

Код:
Общее
Полное имя : E:\СЕРИАЛЫ\The Blacklist Season 2\The.Blacklist.S02E01.720p.WEB.rus.LostFilm.TV.mp4
Формат : MPEG-4
Профиль формата : Base Media
Идентификатор кодека : isom
Размер файла : 1,31 Гбайт
Продолжительность : 43 м.
Режим общего битрейта : Переменный
Общий поток : 4352 Кбит/сек
Коллекция : Черный список
Сезон : 2
Альбом : Черный список, Сезон 2
Альбом/Исполнитель : Черный список
Часть : 1
Часть/Положение : 2
Трек : Лорд Балтимор
Трек/Положение : 1
Исполнитель : Черный список
Жанр : Drama
Тип содержимого : TV Show
Дата записи : 2014
Дата кодирования : UTC 2014-09-23 18:18:29
Дата пометки : UTC 2014-09-23 18:18:29
Программа кодирования : Yamb 2.1.0.0 [http://yamb.unite-video.com] / LostCoder
Правообладатель : LostFilm.TV (c)
Обложка : Yes
Примечание : Бывший агент Рэймонд "Ред" Реддингтон, некогда перешедший на другую сторону закона и много лет находившийся в розыске как один из самых опасных преступников, неожиданно сдается властям. Он предлагает ФБР помощь в поимке террористов международного уровня.
Part_ID : 201
Видео
Идентификатор : 1
Формат : AVC
Формат/Информация : Advanced Video Codec
Профиль формата : High@L3.1
Параметр CABAC формата : Нет
Параметр ReFrames формата : 2 кадра
Идентификатор кодека : avc1
Идентификатор кодека/Информация : Advanced Video Coding
Продолжительность : 43 м.
Битрейт : 4000 Кбит/сек
Максимальный битрейт : 13,6 Мбит/сек
Ширина : 1280 пикселей
Высота : 718 пикселей
Соотношение сторон : 16:9
Режим частоты кадров : Переменный
Частота кадров : 23,976 кадра/сек
Минимальная частота кадров : 23,974 кадра/сек
Максимальная частота кадров : 23,981 кадра/сек
Цветовое пространство : YUV
Субдискретизация насыщенности : 4:2:0
Битовая глубина : 8 бит
Тип развёртки : Прогрессивная
Бит/(Пиксели*Кадры) : 0.182
Размер потока : 1,24 Гбайт (95%)
Библиотека кодирования : x264 core 112 r1834 a51816a
Настройки программы : cabac=0 / ref=3 / deblock=1:0:0 / analyse=0x1:0x111 / me=hex / subme=7 / psy=1 / psy_rd=1.00:0.00 / mixed_ref=1 / me_range=16 / chroma_me=1 / trellis=1 / 8x8dct=0 / cqm=0 / deadzone=21,11 / fast_pskip=1 / chroma_qp_offset=-2 / threads=6 / sliced_threads=0 / nr=0 / decimate=1 / interlaced=0 / constrained_intra=0 / bframes=3 / b_pyramid=2 / b_adapt=1 / b_bias=0 / direct=1 / weightb=1 / open_gop=0 / weightp=2 / keyint=250 / keyint_min=25 / scenecut=40 / intra_refresh=0 / rc_lookahead=40 / rc=abr / mbtree=1 / bitrate=4000 / ratetol=1.0 / qcomp=0.60 / qpmin=0 / qpmax=51 / qpstep=4 / vbv_maxrate=5000 / vbv_bufsize=2000 / ip_ratio=1.40 / aq=1:1.00 / nal_hrd=none
Язык : English
Дата пометки : UTC 2014-09-23 18:19:01
Основные цвета : BT.709
Характеристики трансфера : BT.709
Коэффициенты матрицы : BT.709
Аудио
Идентификатор : 2
Формат : AAC
Формат/Информация : Advanced Audio Codec
Профиль формата : LC
Идентификатор кодека : 40
Продолжительность : 43 м.
Вид битрейта : Переменный
Битрейт : 231 Кбит/сек
Максимальный битрейт : 308 Кбит/сек
Каналы : 2 канала
Расположение каналов : Front: L R
Частота : 48,0 КГц
Метод сжатия : С потерями
Размер потока : 71,1 Мбайт (5%)
Дата кодирования : UTC 2014-09-23 18:18:59
Дата пометки : UTC 2014-09-23 18:19:01

Кадры из фильма

Внимание!: Раздача ведётся путём добавления новых серий

Внимание! Раздача ведётся путём добавления новых серий; при каждом добавлении создётся новый торрент. Чтобы начать докачку новой серии, пользователям необходимо сделать следующее:
(1) остановить скачивание,
(2) удалить старый торрент у себя из клиента (старые серии удалять не надо),
(3) скачать новый торрент и запустить его у себя в клиенте вместо старого, при этом указать клиенту путь в старую папку куда и должно происходить скачивание новых серий.
Ваш клиент при этом должен произвести хеширование (проверку) старой папки (если не производит сам - помогите ему сделать это), и будет докачивать только те серии которых у вас ещё нет. Старые серии при этом не удаляются, а продолжают раздаваться!
Eсли вы уже удалили старые серии, то предотвратить повторную закачку старых серий можно, отжав галочку в соответсвующих местах при запуске нового торрента. По возможности, желательно не удалять старые серии как можно дольше чтобы релизёр не столько продолжал раздавать старые серии, а смог сконцентрироваться на новых.

_________________
[Торрент-статистика]
[Профиль]  [ЛС] 
Показать сообщения:    
Ответить на тему

Текущее время: Сегодня 02:52

Часовой пояс: GMT + 4



Вы не можете начинать темы
Вы не можете отвечать на сообщения
Вы не можете редактировать свои сообщения
Вы не можете удалять свои сообщения
Вы не можете голосовать в опросах
Вы не можете прикреплять файлы к сообщениям
Вы не можете скачивать файлы