Готэм / Gotham / Сезон:1 / Серия 1-10 из 16 (Дэнни Кэннон / Danny Cannon ) [ 2014 г., триллер, драма, криминал, WEB-DL 720p] MVO NewStudio (Обновляемая)

Ответить на тему
 
Автор
Сообщение

awk05 ®

Пол:

Стаж: 5 лет 10 месяцев

Сообщений: 1352

Репутация: 275 [+] [-]

Откуда: Западная Украина Ривне

Пост 24-Сен-2014 00:12

[Цитировать] 

--Готэм / Gotham
«The good. The evil. The beginning»--
Год выпуска 2014
Страна: США
Жанр: триллер, драма, криминал
Сезон/Серия: Сезон:1 / Серия 1-10 из 16
Продолжительность: 16 х 00:50:00
Перевод: Многоголосый закадровый, профессиональный + Original
Озвучка / Автор перевода: (NewStudio)
Субтитры: Русские--Режиссёр: Дэнни Кэннон / Danny Cannon --
В ролях: Бенджамин Маккензи - Джеймс Гордон, Шон Пертви - Альфред Пенниуорт, Робин Тейлор - Освальд Кобблпот/Пингвин, Забрина Гевара - Сара Эссен, Эрин Ричардс - Барбара Кин, Донал Лог - Харви Буллок, Джада Пинкетт-Смит - Фиш Муни, Дэвид Мазоуз - Брюс Уэйн, Камрен Бикондова - Селина Кайл, Кори Майкл Смит - Эдвард Нигма, Дэвид Зайас - Сэльваторе Марони, Виктория Картагена - Рене Монтойя, Эндрю Стюарт-Джонс - Криспус Аллен, Кэрол Кейн - Эстер Капельпут--Описание: Сериал «Готэм» рассказывает о событиях, происходивших в детские годы Брюса Уэйна, впоследствии ставшего Бэтменом. Родителей мальчика убивают у него на глазах. За расследование убийства четы Уэйнов берётся молодой детектив Джим Гордон. Ему приходится иметь дело со злодеями всех мастей, и одним из самых коварных по праву считается Освальд Кобблпот, более известный как Пингвин.
Телевизионный проект DC Comics и автора детективного сериала «Менталист» Бруно Хеллера.--Качество видео: WEB-DL 720p
Формат видео: MKV
Видео кодек: AVC (High@L3.1)
Аудио кодек: AC-3
Видео: AVC, 1280x718 (16:9), 23.976 fps, 3 990 Kbps (0.181 bit/pixel)
Аудио 1: AC-3, 48.0 KHz, 6 ch, 384 Kbps, CBR, 16 bits [Русский]
Аудио 2: AC-3, 48.0 KHz, 6 ch, 384 Kbps, CBR, 16 bits [Английский] -- --

Список серий

01. Пилот
02. Selina Kyle / Селина Кайл
03. The Baloonman / Шародув
04. Arkham / Аркам
05. Viper / Гадюка
06. Spirit of the Goat / Дух козла отпущения
07. Penguin's Umbrella / Зонтик Пингвина
08. The Mask / Маска
09. Harvey Dent / Харви Дент
10. LoveCraft / Ловкрафт

Кадры из фильма

Тех. данные (MI)

Код:
Общее
Уникальный идентификатор                 : 238590458032154369384191774157960358939 (0xB37ED9CB3498E4A89B057ED7F6F3AC1B)
Полное имя                               : G:\Сериалы\Gotham.s01.NewStudio.TV\Gotham.s01e01.WEBDL.720p.NewStudio.TV.mkv
Формат                                   : Matroska
Версия формата                           : Version 4 / Version 2
Размер файла                             : 1,67 Гбайт
Продолжительность                        : 49 м.
Общий поток                              : 4855 Кбит/сек
Дата кодирования                         : UTC 2014-09-23 18:49:35
Программа кодирования                    : mkvmerge v7.2.0 ('On Every Street') 64bit built on Sep 13 2014 15:52:10
Библиотека кодирования                   : libebml v1.3.0 + libmatroska v1.4.1
DURATION                                 : 00:49:18.976000000
NUMBER_OF_FRAMES                         : 92468
NUMBER_OF_BYTES                          : 142030848
_STATISTICS_WRITING_APP                  : mkvmerge v7.2.0 ('On Every Street') 64bit built on Sep 13 2014 15:52:10
_STATISTICS_WRITING_DATE_UTC             : 2014-09-23 18:49:35
_STATISTICS_TAGS                         : BPS DURATION NUMBER_OF_FRAMES NUMBER_OF_BYTES
Видео
Идентификатор                            : 1
Формат                                   : AVC
Формат/Информация                        : Advanced Video Codec
Профиль формата                          : High@L3.1
Параметр CABAC формата                   : Нет
Параметр ReFrames формата                : 2 кадра
Идентификатор кодека                     : V_MPEG4/ISO/AVC
Продолжительность                        : 49 м.
Битрейт                                  : 3990 Кбит/сек
Ширина                                   : 1280 пикселей
Высота                                   : 718 пикселей
Соотношение сторон                       : 16:9
Режим частоты кадров                     : Постоянный
Частота кадров                           : 23,976 кадра/сек
Цветовое пространство                    : YUV
Субдискретизация насыщенности            : 4:2:0
Битовая глубина                          : 8 бит
Тип развёртки                            : Прогрессивная
Бит/(Пиксели*Кадры)                      : 0.181
Размер потока                            : 1,37 Гбайт (82%)
Язык                                     : English
Default                                  : Да
Forced                                   : Нет
Основные цвета                           : BT.709
Характеристики трансфера                 : BT.709
Коэффициенты матрицы                     : BT.709
Аудио #1
Идентификатор                            : 2
Формат                                   : AC-3
Формат/Информация                        : Audio Coding 3
Расширение режима                        : CM (complete main)
Параметр Endianness формата              : Big
Идентификатор кодека                     : A_AC3
Продолжительность                        : 49 м.
Вид битрейта                             : Постоянный
Битрейт                                  : 384 Кбит/сек
Каналы                                   : 6 каналов
Расположение каналов                     : Front: L C R, Side: L R, LFE
Частота                                  : 48,0 КГц
Битовая глубина                          : 16 бит
Метод сжатия                             : С потерями
Размер потока                            : 135 Мбайт (8%)
Язык                                     : Russian
Default                                  : Да
Forced                                   : Нет
Аудио #2
Идентификатор                            : 3
Формат                                   : AC-3
Формат/Информация                        : Audio Coding 3
Расширение режима                        : CM (complete main)
Параметр Endianness формата              : Big
Идентификатор кодека                     : A_AC3
Продолжительность                        : 49 м.
Вид битрейта                             : Постоянный
Битрейт                                  : 384 Кбит/сек
Каналы                                   : 6 каналов
Расположение каналов                     : Front: L C R, Side: L R, LFE
Частота                                  : 48,0 КГц
Битовая глубина                          : 16 бит
Метод сжатия                             : С потерями
Размер потока                            : 135 Мбайт (8%)
Язык                                     : English
Default                                  : Нет
Forced                                   : Нет
Текст
Идентификатор                            : 4
Формат                                   : ASS
Идентификатор кодека                     : S_TEXT/ASS
Идентификатор кодека/Информация          : Advanced Sub Station Alpha
Метод сжатия                             : Без потерь
Язык                                     : Russian
Default                                  : Да
Forced                                   : Нет

Внимание! Раздача ведётся путём добавления новых серий

Внимание! Раздача ведётся путём добавления новых серий; при каждом добавлении создаётся новый торрент.
Чтобы начать докачку новой серии, пользователям необходимо сделать следующее:
1. Остановить скачивание;
2. Удалить старый торрент у себя из клиента (старые серии удалять не надо);
3. Скачать новый торрент и запустить его у себя в клиенте вместо старого, при этом указать клиенту путь в старую папку куда и должно происходить скачивание новых серий. Ваш клиент при этом должен произвести хеширование (проверку) старой папки и будет докачивать только те серии, которых у вас ещё нет. Старые серии при этом не удаляются, а продолжают раздаваться! Eсли вы уже удалили старые серии, то предотвратить повторную закачку старых серий можно, отжав галочку в соответствующих местах при запуске нового торрента.

_________________


Последний раз редактировалось: awk05 (2014-11-30 10:43), всего редактировалось 7 раз(а)
[Торрент-статистика]
[Профиль]  [ЛС] 

TToRR92

Стаж: 5 лет 3 месяца

Сообщений: 3

Репутация: 0 [+] [-]

Пост 24-Сен-2014 17:56 (спустя 17 часов)

[Цитировать] 

надо будет посмотреть.
[Торрент-статистика]
[Профиль]  [ЛС] 

TYAnCE

Пол:

Стаж: 6 лет 3 месяца

Сообщений: 269

Репутация: 65 [+] [-]

Откуда: Туапсе

Пост 18-Окт-2014 01:49 (спустя 23 дня)

[Цитировать] 

Фига се. Раздача вроде Готэма, а в файлах Родина...

_________________
[Торрент-статистика]
[Профиль]  [ЛС] 

awk05 ®

Пол:

Стаж: 5 лет 10 месяцев

Сообщений: 1352

Репутация: 275 [+] [-]

Откуда: Западная Украина Ривне

Пост 30-Окт-2014 02:34 (спустя 11 дней)

[Цитировать] 

48373Фига се. Раздача вроде Готэма, а в файлах Родина...
не ошибается тот кто ни чего не делает

_________________
[Торрент-статистика]
[Профиль]  [ЛС] 
Показать сообщения:    
Ответить на тему

Текущее время: Сегодня 18:28

Часовой пояс: GMT + 4



Вы не можете начинать темы
Вы не можете отвечать на сообщения
Вы не можете редактировать свои сообщения
Вы не можете удалять свои сообщения
Вы не можете голосовать в опросах
Вы не можете прикреплять файлы к сообщениям
Вы не можете скачивать файлы