Хорошая жена / The Good Wife / Сезон: 6 / Серии: 1-10 из 22 (Розмари Родригез, Майкл Цинберг, Брук Кеннеди) [2014-2015 г., Драма, Криминал, Детектив, WEB-DL 720p] МVO (NewStudio)

Ответить на тему
 
Автор
Сообщение

awk05 ®

Пол:

Стаж: 6 лет 2 месяца

Сообщений: 1351

Репутация: 275 [+] [-]

Откуда: Западная Украина Ривне

Пост 23-Сен-2014 22:37

[Цитировать] 

--Хорошая Жена / The Good Wife-- Год выпуска: 2014-2015
Страна: США
Жанр: Драма, Криминал, Детектив
Сезон/Серия: Сезон:6 /Серия 1-10 из 22
Продолжительность: 22 x ~00:45:00 мин.
Перевод: Профессиональный (многоголосый, закадровый) (Newstudio)
Русские субтитры: отсутствуют--Режиссер: Розмари Родригез, Майкл Цинберг, Брук Кеннеди--В ролях: Джулианна Маргулис (Alicia Florrick), Мэтт Зукри (Cary Agos), Арчи Панджаби (Kalinda Sharma), Грэхэм Филлипс (Zach Florrick), Макензи Вега (Grace Florrick), Джош Чарльз (Will Gardner), Кристин Барански (Diane Lockhart), Алан Камминг (Eli Gold), Крис Нот (Peter Florrick), Мэри Бет Пейл (Jackie Florrick), Зэк Гренье (David Lee), Титус Уэлливер (Glenn Childs)--Описание: Благополучное существование Алисии Флоррик, счастливой жены и матери двух детей, было разрушено, когда её муж, чикагский прокурор Питер Флоррик, оказался в центре секс-скандала. Осуждённый за коррупцию Питер отправился в тюрьму, а на плечи Алисии легла забота о семье.
Пришлось вспомнить свои навыки адвоката. Старый друг взял Алисию к себе в фирму - младшим сотрудником, наравне с свежими выпускниками юридического колледжа, и теперь Алисия должна построить свою карьеру практически с нуля, не переставая заботиться о семье и продолжая испытывать негативные последствия скандала вокруг мужа.
В сериале смешаны семейная и юридическая драмы примерно в равных пропорциях. В каждой серии рассказывается история про дело, которое ведёт фирма "Стерн, Локхарт и Гарднер", куда Алисия устроилась на работу. И в каждой серии показывается жизнь её семьи, а заодно разворачивается сквозной детективный сюжет вокруг Питера - ведь его подставили под обвинение в коррупции не просто так.
Вновь обретённая работа, любовь к детям, сложные отношения с мужем, взаимодействие с коллегами - вот из чего состоит жизнь этой женщины, на первый взгляд беззащитной и мягкой, но в реальности очень сильной и упорной.--Качество видео:WEB-DL 720p
Формат видео: MKV
Видео кодек: AVC (High@L3.1)
Аудио кодек: AC3
Видео: AVC, 1280x720 (16:9), 23.976 fps, 3 771 Kbps (0.171 bit/pixel)
Аудио 1: AC-3, 48.0 KHz, 6 ch, 384 Kbps, CBR, 16 bits [Русский]
Аудио 2: AC-3, 48.0 KHz, 6 ch, 384 Kbps, CBR, 16 bits [Английский] -- --

MediaInfo

Код:
Общее
Уникальный идентификатор                 : 248865535107402346344895176976979718517 (0xBB39C234D9A6163990CDFD01189BF175)
Полное имя                               : G:\Сериалы\The.Good.Wife.s06 NewStudio\The.Good.Wife.s06e01.WEBDL.720p.NewStudio.TV.mkv
Формат                                   : Matroska
Версия формата                           : Version 2
Размер файла                             : 1,42 Гбайт
Продолжительность                        : 43 м.
Общий поток                              : 4631 Кбит/сек
Дата кодирования                         : UTC 2014-09-23 16:41:08
Программа кодирования                    : mkvmerge v2.9.9 ('Tutu') built on Nov 25 2009 21:13:32
Библиотека кодирования                   : libebml v0.7.9 + libmatroska v0.8.1
Attachements                             : small_cover.jpg / cover.jpg / cover_land.jpg / small_cover_land.jpg
Видео
Идентификатор                            : 1
Формат                                   : AVC
Формат/Информация                        : Advanced Video Codec
Профиль формата                          : High@L3.1
Параметр CABAC формата                   : Нет
Параметр ReFrames формата                : 2 кадра
Идентификатор кодека                     : V_MPEG4/ISO/AVC
Продолжительность                        : 43 м.
Битрейт                                  : 3771 Кбит/сек
Ширина                                   : 1280 пикселей
Высота                                   : 720 пикселей
Соотношение сторон                       : 16:9
Режим частоты кадров                     : Постоянный
Частота кадров                           : 23,976 кадра/сек
Цветовое пространство                    : YUV
Субдискретизация насыщенности            : 4:2:0
Битовая глубина                          : 8 бит
Тип развёртки                            : Прогрессивная
Бит/(Пиксели*Кадры)                      : 0.171
Размер потока                            : 1,15 Гбайт (81%)
Язык                                     : English
Default                                  : Нет
Forced                                   : Нет
Основные цвета                           : BT.709
Характеристики трансфера                 : BT.709
Коэффициенты матрицы                     : BT.709
Аудио #1
Идентификатор                            : 2
Формат                                   : AC-3
Формат/Информация                        : Audio Coding 3
Расширение режима                        : CM (complete main)
Параметр Endianness формата              : Big
Идентификатор кодека                     : A_AC3
Продолжительность                        : 43 м.
Вид битрейта                             : Постоянный
Битрейт                                  : 384 Кбит/сек
Каналы                                   : 6 каналов
Расположение каналов                     : Front: L C R, Side: L R, LFE
Частота                                  : 48,0 КГц
Битовая глубина                          : 16 бит
Метод сжатия                             : С потерями
Размер потока                            : 120 Мбайт (8%)
Язык                                     : Russian
Default                                  : Да
Forced                                   : Да
Аудио #2
Идентификатор                            : 3
Формат                                   : AC-3
Формат/Информация                        : Audio Coding 3
Расширение режима                        : CM (complete main)
Параметр Endianness формата              : Big
Идентификатор кодека                     : A_AC3
Продолжительность                        : 43 м.
Вид битрейта                             : Постоянный
Битрейт                                  : 384 Кбит/сек
Каналы                                   : 6 каналов
Расположение каналов                     : Front: L C R, Side: L R, LFE
Частота                                  : 48,0 КГц
Битовая глубина                          : 16 бит
Метод сжатия                             : С потерями
Размер потока                            : 120 Мбайт (8%)
Язык                                     : English
Default                                  : Нет
Forced                                   : Нет

Список серий

01. The Line / Линия
02. Trust Issues / Проблемы с доверием
03. Dear God /Боже правый
04. Dear God / Компромат
05. Shiny Objects / Блестяшки
06. Old Spice / Олд Спайс
07. Message Discipline / Смена темы
08. Red Zone / Опасная зона
09. Sticky Content / Грязный контент
10. The Trial / Суд

Скриншоты


_________________
[Торрент-статистика]
[Профиль]  [ЛС] 
Показать сообщения:    
Ответить на тему

Текущее время: Сегодня 15:12

Часовой пояс: GMT + 4



Вы не можете начинать темы
Вы не можете отвечать на сообщения
Вы не можете редактировать свои сообщения
Вы не можете удалять свои сообщения
Вы не можете голосовать в опросах
Вы не можете прикреплять файлы к сообщениям
Вы не можете скачивать файлы