Своя правда (Правосудие) / Justified / Сезон: 4 / Серии: 1-13 (13) (Адам Аркин, Джон Эвнет, Питер Уэрнер) [2013, боевик, драма, криминал, BDRip 720p] MVO (Студия Jaskier) + Original

Ответить на тему
 
Автор
Сообщение

awk05 ®

Пол:

Стаж: 6 лет 4 месяца

Сообщений: 1348

Репутация: 275 [+] [-]

Откуда: Западная Украина Ривне

Пост 22-Сен-2014 23:44

[Цитировать] 

--Своя правда (Правосудие) / Justified-- Год выпуска: 2013
Страна: США | FX Productions
Жанр: боевик, триллер, драма, криминал
Сезон/Серия: Сезон:4 / Серия 1-13 из 13
Продолжительность: 13 х 00:46:00 минут
Перевод: профессиональный многоголосый закадровый + оригинал
Озвучка / Автор перевода: (Студия Jaskier)
Субтитры: Английские--Режиссёр: Адам Аркин, Джон Эвнет, Питер Уэрнер--В ролях: Тимоти Олифант, Натали Зиа, Ник Сирси, Джоэль Картер, Джекоб Питт, Уолтон Гоггинс, Уильям Рэгсдэйл, Кейтлин Девер, Дэвид Хилл--Описание: Федеральный маршал Рейлан Гивенс убил человека, не первого, и далеко не последнего. Хоть убитый и был преступником, но методы маршала Гивенса не одобряются начальством. В наказание его отправили работать в Кентукки, на родину.
Гивенс ненавидит Кентукки. К тому же, там его НЕ ждут бывшая жена; бывшие друзья, ставшие преступниками; обычные преступники, которые не любят, когда им мешают, и отец, который всегда был в неладах с законом. Конечно, у каждого из них своя правда, но федеральный маршал Рейлан Гивенс имеет в своем арсенале несколько весьма убедительных аргументов — в их числе, убийственное чувство юмора, глок и, разумеется, шляпа.--Качество видео: BDRip 720p
Формат видео: MKV
Видео кодек: AVC (High@L4.1)
Аудио кодек: DTS, AC-3
Видео: AVC, 1280x720 (16:9), 23.976 fps, 6 000 Kbps (0.272 bit/pixel)
Аудио 1: DTS, 48.0 KHz, 6 ch, 1 510 Kbps, CBR, 24 bits [Русский]
Аудио 2: AC-3, 48.0 KHz, 6 ch, 640 Kbps, CBR, 16 bits [Английский] -- --

Кадры из фильма

Тех. данные (MI)

Код:
Общее
Уникальный идентификатор                 : 215506417288817554611306937454506864616 (0xA22106B6C6387F9A9ABCECA37310EFE8)
Полное имя                               : G:\тест\Justified\Justified.S04.2013.720p.BluRay.Rus.Eng.HDCLUB\Justified.S04E01.Hole.in.the.Wall.2013.720p.BluRay.Rus.Eng.HDCLUB.mkv
Формат                                   : Matroska
Версия формата                           : Version 4 / Version 2
Размер файла                             : 2,65 Гбайт
Продолжительность                        : 46 м.
Общий поток                              : 8194 Кбит/сек
Дата кодирования                         : UTC 2014-02-05 16:55:11
Программа кодирования                    : mkvmerge v6.7.0 ('Back to the Ground') 64bit built on Jan  8 2014 15:10:52
Библиотека кодирования                   : libebml v1.3.0 + libmatroska v1.4.1
Видео
Идентификатор                            : 1
Формат                                   : AVC
Формат/Информация                        : Advanced Video Codec
Профиль формата                          : High@L4.1
Параметр CABAC формата                   : Да
Параметр ReFrames формата                : 9 кадров
Идентификатор кодека                     : V_MPEG4/ISO/AVC
Продолжительность                        : 46 м.
Битрейт                                  : 6000 Кбит/сек
Ширина                                   : 1280 пикселей
Высота                                   : 720 пикселей
Соотношение сторон                       : 16:9
Режим частоты кадров                     : Постоянный
Частота кадров                           : 23,976 кадра/сек
Цветовое пространство                    : YUV
Субдискретизация насыщенности            : 4:2:0
Битовая глубина                          : 8 бит
Тип развёртки                            : Прогрессивная
Бит/(Пиксели*Кадры)                      : 0.272
Размер потока                            : 1,90 Гбайт (72%)
Заголовок                                : Justified. Season 04 Episode 01 "Hole in the Wall"
Библиотека кодирования                   : x264 core 140 r2377kMod 1ca7bb9
Настройки программы                      : cabac=1 / ref=9 / deblock=1:-3:-3 / analyse=0x3:0x113 / me=umh / subme=11 / psy=1 / fade_compensate=0.00 / psy_rd=1.05:0.00 / mixed_ref=1 / me_range=32 / chroma_me=1 / trellis=2 / 8x8dct=1 / cqm=0 / deadzone=6,6 / fast_pskip=0 / chroma_qp_offset=-4 / threads=12 / lookahead_threads=2 / sliced_threads=0 / nr=0 / decimate=0 / interlaced=0 / bluray_compat=0 / constrained_intra=0 / fgo=0 / bframes=9 / b_pyramid=2 / b_adapt=2 / b_bias=0 / direct=3 / weightb=1 / open_gop=0 / weightp=2 / keyint=240 / keyint_min=23 / scenecut=40 / intra_refresh=0 / rc_lookahead=60 / rc=2pass / mbtree=0 / bitrate=6000 / ratetol=1.0 / qcomp=0.65 / qpmin=0 / qpmax=69 / qpstep=4 / cplxblur=20.0 / qblur=0.5 / vbv_maxrate=50000 / vbv_bufsize=62500 / nal_hrd=none / filler=0 / ip_ratio=1.10 / pb_ratio=1.10 / aq=3:0.85
Язык                                     : English
Default                                  : Да
Forced                                   : Нет
Аудио #1
Идентификатор                            : 2
Формат                                   : DTS
Формат/Информация                        : Digital Theater Systems
Режим                                    : 16
Параметр Endianness формата              : Big
Идентификатор кодека                     : A_DTS
Продолжительность                        : 46 м.
Вид битрейта                             : Постоянный
Битрейт                                  : 1509 Кбит/сек
Каналы                                   : 6 каналов
Расположение каналов                     : Front: L C R, Side: L R, LFE
Частота                                  : 48,0 КГц
Битовая глубина                          : 16 бит
Метод сжатия                             : С потерями
Размер потока                            : 500 Мбайт (18%)
Заголовок                                : DTS 5.1 @ 1536 kbps - Jaskier, HDClub
Язык                                     : Russian
Default                                  : Да
Forced                                   : Нет
Аудио #2
Идентификатор                            : 3
Формат                                   : AC-3
Формат/Информация                        : Audio Coding 3
Расширение режима                        : CM (complete main)
Параметр Endianness формата              : Big
Идентификатор кодека                     : A_AC3
Продолжительность                        : 46 м.
Вид битрейта                             : Постоянный
Битрейт                                  : 640 Кбит/сек
Каналы                                   : 6 каналов
Расположение каналов                     : Front: L C R, Side: L R, LFE
Частота                                  : 48,0 КГц
Битовая глубина                          : 16 бит
Метод сжатия                             : С потерями
Размер потока                            : 212 Мбайт (8%)
Заголовок                                : AC3 5.1 @ 640 kbps
Язык                                     : English
Default                                  : Нет
Forced                                   : Нет
Текст #1
Идентификатор                            : 4
Формат                                   : PGS
Режим смешивания                         : zlib
Идентификатор кодека                     : S_HDMV/PGS
Идентификатор кодека/Информация          : The same subtitle format used on BDs/HD-DVDs
Язык                                     : English
Default                                  : Нет
Forced                                   : Нет
Текст #2
Идентификатор                            : 5
Формат                                   : PGS
Режим смешивания                         : zlib
Идентификатор кодека                     : S_HDMV/PGS
Идентификатор кодека/Информация          : The same subtitle format used on BDs/HD-DVDs
Заголовок                                : SDH
Язык                                     : English
Default                                  : Нет
Forced                                   : Нет
Меню
00:00:00.000                             : en:00:00:00.000
00:05:49.558                             : en:00:05:49.558
00:20:00.282                             : en:00:20:00.282
00:25:35.492                             : en:00:25:35.492
00:31:17.793                             : en:00:31:17.793
00:45:36.150                             : en:00:45:36.150

_________________
[Торрент-статистика]
[Профиль]  [ЛС] 
Показать сообщения:    
Ответить на тему

Текущее время: Сегодня 00:14

Часовой пояс: GMT + 4



Вы не можете начинать темы
Вы не можете отвечать на сообщения
Вы не можете редактировать свои сообщения
Вы не можете удалять свои сообщения
Вы не можете голосовать в опросах
Вы не можете прикреплять файлы к сообщениям
Вы не можете скачивать файлы