Хэйвен / Haven / Сезон: 5 / Серии: 1-10 из 26 (Ли Роуз, Шон Пиллер, Т.У. Пикок) [2014, ужасы, фантастика, фэнтези, триллер, драма, кримин, WEB-DL 720p] DVO (Кубик в Кубе) + Original

Ответить на тему
 
Автор
Сообщение

awk05 ®

Пол:

Стаж: 6 лет 5 месяцев

Сообщений: 1347

Репутация: 275 [+] [-]

Откуда: Западная Украина Ривне

Пост 21-Сен-2014 14:56

[Цитировать] 

--Хэйвен / Haven«It takes a village to hide a secret»-- Год выпуска: 2014
Страна: Канада, США
Жанр: ужасы, фантастика, фэнтези, триллер, драма, криминал
Сезон/Серия: Сезон:5 / Серия 1-10 из 26
Продолжительность: 26 x ~00:43:00 серия
Перевод: Профессиональный двухголосый закадровый
Озвучка / Автор перевода: (Кубик в Кубе)
Субтитры: нет--Режиссёр: Ли Роуз, Шон Пиллер, Т.У. Пикок--В ролях: Эмили Роуз (Audrey Parker), Лукас Брайант (Nathan Wuornos),Эрик Бальфур (Duke Crocker), Ричард Донат (Vince Teagues),Джон Дансуорт (Dave Teagues), Адам Коуплэнд (Dwight Hendrickson),Николас Кэмпбелл (Chief of Police Wuornos), Кейт Келтон (Jordan McKee),Эмма Лахана (Jennifer Mason),Бри Уильямсон (Claire Callahan),Кристофер Шор (Dr. Lucassi), Колин Фергюсон (William), Стивен МакХэтти (Rev. Ed Driscoll), и др.--Описание:
За основу взят сюжет из книги Стивена Кинга "The Colorado Kid" ("Дитя Колорадо"). Агент Одри Паркер приезжает в маленький городок, чтобы расследовать исчезновение и смерть опасного преступника. Как выясняется, в Хейвене обитают люди, которые обладают сверхспособностями. Но, окончив расследование, Одри не уезжает их Хейвена — оказывается, что именно здесь она сможет узнать что-то о своей матери, ведь она сирота и ничего не знает о своих родных. Теперь Одри предстоит понять, кто такая Люси Рипли — загадочная женщина из прошлого, так похожая на нее и разобраться во всех головоломках и странностях, которые происходят в этом необычном месте. Напарником Одри в расследовании таинственных событий становится местный детектив Нэйтон Уорнос, а также обаятельный контрабандист Дюк Крокер.--Качество видео: WEB-DL 720p
Формат видео: MKV
Видео кодек: AVC (High@L3.1)
Аудио кодек: AC-3
Видео: AVC, 1280x718 (16:9), 23.976 fps, 3 960 Kbps (0.180 bit/pixel)
Аудио 1: AC-3, 44.1 KHz, 2 ch, 384 Kbps, CBR, 16 bits [Русский]
Аудио 2: AC-3, 48.0 KHz, 6 ch, 384 Kbps, CBR, 16 bits [Английский] -- --

Список серий

01. See No Evil / Не вижу зла
02. Speak No Evil / Ничего никому не скажу
03. Spotlight / Луч света
04. Much Ado About Mara / Много суматохи из-за Мары
05. The Old Switc heroo (1)
06. The Old Switc heroo (2)
07. Nowhere Man
08. Exposure
09. Morbidity
10. Mortality
11. Reflections
13. Chosen

MediaInfo

Общее
Уникальный идентификатор : 205210823130181816566279667062398638739 (0x9A622ABB2146D0A89ABB58A83FBDDA93)
Полное имя : G:\тест\Haven.s05.720p.WEB-DL.Kubik.v.Kube\Haven.s05e01.720p.WEB-DL.Kubik.vKube.mkv
Формат : Matroska
Версия формата : Version 2
Размер файла : 1,43 Гбайт
Продолжительность : 42 м.
Общий поток : 4824 Кбит/сек
Дата кодирования : UTC 2014-09-16 14:11:49
Программа кодирования : mkvmerge v4.1.1 ('Bouncin' Back') built on Jul 3 2010 22:54:08
Библиотека кодирования : libebml v1.0.0 + libmatroska v1.0.0
Видео
Идентификатор : 1
Формат : AVC
Формат/Информация : Advanced Video Codec
Профиль формата : High@L3.1
Параметр CABAC формата : Нет
Параметр ReFrames формата : 2 кадра
Идентификатор кодека : V_MPEG4/ISO/AVC
Продолжительность : 42 м.
Битрейт : 3960 Кбит/сек
Ширина : 1280 пикселей
Высота : 718 пикселей
Соотношение сторон : 16:9
Режим частоты кадров : Постоянный
Частота кадров : 23,976 кадра/сек
Цветовое пространство : YUV
Субдискретизация насыщенности : 4:2:0
Битовая глубина : 8 бит
Тип развёртки : Прогрессивная
Бит/(Пиксели*Кадры) : 0.180
Размер потока : 1,17 Гбайт (82%)
Язык : English
Default : Да
Forced : Нет
Основные цвета : BT.709
Характеристики трансфера : BT.709
Коэффициенты матрицы : BT.709
Аудио #1
Идентификатор : 2
Формат : AC-3
Формат/Информация : Audio Coding 3
Расширение режима : CM (complete main)
Параметр Endianness формата : Big
Режим смешивания : Header stripping
Идентификатор кодека : A_AC3
Продолжительность : 42 м.
Вид битрейта : Постоянный
Битрейт : 384 Кбит/сек
Каналы : 2 канала
Расположение каналов : Front: L R
Частота : 44,1 КГц
Битовая глубина : 16 бит
Метод сжатия : С потерями
Размер потока : 116 Мбайт (8%)
Заголовок : KvK
Язык : Russian
Default : Да
Forced : Да
Аудио #2
Идентификатор : 3
Формат : AC-3
Формат/Информация : Audio Coding 3
Расширение режима : CM (complete main)
Параметр Endianness формата : Big
Режим смешивания : Header stripping
Идентификатор кодека : A_AC3
Продолжительность : 42 м.
Вид битрейта : Постоянный
Битрейт : 384 Кбит/сек
Каналы : 6 каналов
Расположение каналов : Front: L C R, Side: L R, LFE
Частота : 48,0 КГц
Битовая глубина : 16 бит
Метод сжатия : С потерями
Размер потока : 116 Мбайт (8%)
Язык : English
Default : Нет
Forced : Нет

Скриншоты

Описание действий при скачивании нового торрент- файла

При каждом добавлении создётся новый торрент. Чтобы начать докачку новой серии, пользователям необходимо сделать следующее:
1) остановить скачивание,
2) удалить старый торрент у себя из клиента (старые серии удалять не надо), 3) скачать новый торрент и запустить его у себя в клиенте вместо старого, при этом указать клиенту путь в старую папку куда и должно происходить скачивание новых серий.
Ваш клиент при этом должен произвести хеширование (проверку) старой папки (если не производит сам - помогите ему сделать это), и будет докачивать только те серии которых у вас ещё нет. Старые серии при этом не удаляются, а продолжают раздаваться!
Eсли вы уже удалили старые серии, то предотвратить повторную закачку старых серий можно, отжав галочку в соответсвующих местах при запуске нового торрента.
Как закачать отдельный файл из торрента или докачать ранее пропущенные файлы торрента!
отдельный файл
1. Открыть торрент.
2. Снять галки с тех файлов торрента, которые мы не хотим закачивать:
либо вручную, снимая с каждого файла галку
либо, нажав кнопку "Снять метки (Select None)", сняв сразу со всех файлов.
Оставляем только на нужных нам файлах (файле).
3. Нажать О.К.
пропущенные файлы торрента
1. Открыть торрент.
2. Выделяем торрент одним нажатием левой кнопкой мыши.
3. Заходим на вкладку "Files (Файлы)"
4. И меняем нажатием правой кнопкой мыши приоритет на "Normal (нормальный)"
5.Нажать О.К.

_________________
[Торрент-статистика]
[Профиль]  [ЛС] 
Показать сообщения:    
Ответить на тему

Текущее время: Сегодня 05:58

Часовой пояс: GMT + 4



Вы не можете начинать темы
Вы не можете отвечать на сообщения
Вы не можете редактировать свои сообщения
Вы не можете удалять свои сообщения
Вы не можете голосовать в опросах
Вы не можете прикреплять файлы к сообщениям
Вы не можете скачивать файлы