Хэйвен / Haven / Сезон: 5 / Серии: 1-10 из 26 (Ли Роуз, Шон Пиллер, Т.У. Пикок) [2014, ужасы, фантастика, фэнтези, триллер, драма, криминал, WEB-DLRip ] DVO Кубик в Кубе (Обновляемая)

Ответить на тему
 
Автор
Сообщение

awk05 ®

Пол:

Стаж: 6 лет 1 месяц

Сообщений: 1351

Репутация: 275 [+] [-]

Откуда: Западная Украина Ривне

Пост 16-Сен-2014 14:50

[Цитировать] 

--Хэйвен / Haven«It takes a village to hide a secret»-- Год выпуска: 2014
Страна: Канада, США
Жанр: ужасы, фантастика, фэнтези, триллер, драма, криминал
Сезон/Серия: Сезон:5 / Серия 1-10 из 26
Продолжительность: 26 x ~00:43:00 серия
Перевод: Профессиональный двухголосый закадровый
Озвучка / Автор перевода: (Кубик в Кубе)
Субтитры: нет--Режиссёр: Ли Роуз, Шон Пиллер, Т.У. Пикок--В ролях: Эмили Роуз (Audrey Parker), Лукас Брайант (Nathan Wuornos),Эрик Бальфур (Duke Crocker), Ричард Донат (Vince Teagues),Джон Дансуорт (Dave Teagues), Адам Коуплэнд (Dwight Hendrickson),Николас Кэмпбелл (Chief of Police Wuornos), Кейт Келтон (Jordan McKee),Эмма Лахана (Jennifer Mason),Бри Уильямсон (Claire Callahan),Кристофер Шор (Dr. Lucassi), Колин Фергюсон (William), Стивен МакХэтти (Rev. Ed Driscoll), и др.--Описание: За основу взят сюжет из книги Стивена Кинга "The Colorado Kid" ("Дитя Колорадо"). Агент Одри Паркер приезжает в маленький городок, чтобы расследовать исчезновение и смерть опасного преступника. Как выясняется, в Хейвене обитают люди, которые обладают сверхспособностями. Но, окончив расследование, Одри не уезжает их Хейвена — оказывается, что именно здесь она сможет узнать что-то о своей матери, ведь она сирота и ничего не знает о своих родных. Теперь Одри предстоит понять, кто такая Люси Рипли — загадочная женщина из прошлого, так похожая на нее и разобраться во всех головоломках и странностях, которые происходят в этом необычном месте. Напарником Одри в расследовании таинственных событий становится местный детектив Нэйтон Уорнос, а также обаятельный контрабандист Дюк Крокер.--Качество видео: WEB-DLRip
Формат видео: AVI
Видео кодек: MPEG4, XviD
Аудио кодек: MP3
Видео: MPEG4, XviD, 720x400 (2.045), 23.976 fps, 1 441 Kbps (0.209 bit/pixel)
Аудио: MP3, 44.1 KHz, 2 ch, 128 Kbps, CBR, 16 bits [Русский] -- --

Список серий

01. See No Evil / Ничего не вижу
02. Speak No Evil / Ничего никому не скажу
03. Spotlight / Луч света
04. Much Ado About Mara / Много суматохи из-за Мары
05. The Old Switc heroo (1)
06. The Old Switc heroo (2)
07. Nowhere Man
08. Exposure
09. Morbidity
10. Mortality
11. Reflections
13. Chosen

Кадры из фильма

Тех. данные (MI)

Код:
Общее
Полное имя : E:\СЕРИАЛЫ\Haven\X.av3n.s05.KVK\X.av3n.s05e01.KVK.avi
Формат : AVI
Формат/Информация : Audio Video Interleave
Размер файла : 497 Мбайт
Продолжительность : 42 м.
Общий поток : 1643 Кбит/сек
Программа кодирования : VirtualDubMod 1.5.10.2 (build 2540/release)
Библиотека кодирования : VirtualDubMod build 2540/release
Видео
Идентификатор : 0
Формат : MPEG-4 Visual
Профиль формата : Advanced Simple@L5
Параметр BVOP формата : 2
Параметр QPel формата : Нет
Параметр GMC формата : Без точки перехода
Параметр матрицы формата : Default (H.263)
Идентификатор кодека : XVID
Идентификатор кодека/Подсказка : XviD
Продолжительность : 42 м.
Битрейт : 1505 Кбит/сек
Ширина : 720 пикселей
Высота : 400 пикселей
Соотношение сторон : 16:9
Частота кадров : 23,976 кадра/сек
Цветовое пространство : YUV
Субдискретизация насыщенности : 4:2:0
Битовая глубина : 8 бит
Тип развёртки : Прогрессивная
Метод сжатия : С потерями
Бит/(Пиксели*Кадры) : 0.218
Размер потока : 456 Мбайт (92%)
Библиотека кодирования : XviD 1.2.1 (UTC 2008-12-04)
Аудио
Идентификатор : 1
Формат : MPEG Audio
Версия формата : Version 1
Профиль формата : Layer 3
Режим : Joint stereo
Расширение режима : MS Stereo
Идентификатор кодека : 55
Идентификатор кодека/Подсказка : MP3
Продолжительность : 42 м.
Вид битрейта : Постоянный
Битрейт : 128 Кбит/сек
Каналы : 2 канала
Частота : 44,1 КГц
Метод сжатия : С потерями
Размер потока : 38,8 Мбайт (8%)
Выравнивание : Разделение по промежуткам
Продолжительность промежутка : 42 мс. (1,00 видеокадр)
Время предзагрузки промежутка : 500 мс.

Описание действий при скачивании нового торрент- файла

При каждом добавлении создётся новый торрент. Чтобы начать докачку новой серии, пользователям необходимо сделать следующее:
1) остановить скачивание,
2) удалить старый торрент у себя из клиента (старые серии удалять не надо), 3) скачать новый торрент и запустить его у себя в клиенте вместо старого, при этом указать клиенту путь в старую папку куда и должно происходить скачивание новых серий.
Ваш клиент при этом должен произвести хеширование (проверку) старой папки (если не производит сам - помогите ему сделать это), и будет докачивать только те серии которых у вас ещё нет. Старые серии при этом не удаляются, а продолжают раздаваться!
Eсли вы уже удалили старые серии, то предотвратить повторную закачку старых серий можно, отжав галочку в соответсвующих местах при запуске нового торрента.
Как закачать отдельный файл из торрента или докачать ранее пропущенные файлы торрента!
отдельный файл
1. Открыть торрент.
2. Снять галки с тех файлов торрента, которые мы не хотим закачивать:
либо вручную, снимая с каждого файла галку
либо, нажав кнопку "Снять метки (Select None)", сняв сразу со всех файлов.
Оставляем только на нужных нам файлах (файле).
3. Нажать О.К.
пропущенные файлы торрента
1. Открыть торрент.
2. Выделяем торрент одним нажатием левой кнопкой мыши.
3. Заходим на вкладку "Files (Файлы)"
4. И меняем нажатием правой кнопкой мыши приоритет на "Normal (нормальный)"
5.Нажать О.К.

_________________
[Торрент-статистика]
[Профиль]  [ЛС] 
Показать сообщения:    
Ответить на тему

Текущее время: Сегодня 14:57

Часовой пояс: GMT + 4



Вы не можете начинать темы
Вы не можете отвечать на сообщения
Вы не можете редактировать свои сообщения
Вы не можете удалять свои сообщения
Вы не можете голосовать в опросах
Вы не можете прикреплять файлы к сообщениям
Вы не можете скачивать файлы