Компаньоны / Франклин и Бэш / Franklin & Bash / Сезон: 3 / Серии: 1-10 (10) (Джейсон Энслер, Ричи Кин, Майк Листо) [2013 г., комедия, криминал, WEB-DL 720p] MVO (To4ka)

Ответить на тему
 
Автор
Сообщение

awk05 ®

Пол:

Стаж: 5 лет 11 месяцев

Сообщений: 1352

Репутация: 275 [+] [-]

Откуда: Западная Украина Ривне

Пост 14-Сен-2014 18:43

[Цитировать] 

--Компаньоны / Franklin & Bash«Ripping the law a new one»-- Год выпуска: 2013
Страна: США
Жанр: комедия, криминал
Сезон/Серия: Сезон:3 /Серия 1-10 из 10
Продолжительность: 10 ~ 00:42:00
Перевод: Любительский (многоголосый, закадровый)
Озвучка / Автор перевода: (To4ka)
Субтитры: нет--Режиссёр: Джейсон Энслер, Ричи Кин, Майк Листо--В ролях: Брекин Мейер, Стефани Карпентьери, Клэр Коффи, Майкл Ковингтон, Карина Родригез, Марк-Пол Госселаар, Рид Даймонд, Дэна Дэвис, Гарсель Бове, Кумэйл Нанджиани и др.--Описание: Двое молодых, уличных адвоката, после выигрыша крупного дела над легендарной юридической фирмой были приняты на работу её основателем, однако из-за его неэтичного поведения адвокаты постоянно оказываются в неприятностях.--Качество видео: WEB-DL 720p
Формат видео: MKV
Видео кодек: AVC (High@L3.1)
Аудио кодек: AC-3
Видео: AVC, 1280x718 (16:9), 23.976 fps, 4 033 Kbps (0.183 bit/pixel)
Аудио 1: AC-3, 48.0 KHz, 6 ch, 384 Kbps, CBR, 16 bits [Русский]
Аудио 2: AC-3, 48.0 KHz, 6 ch, 384 Kbps, CBR, 16 bits [Английский] -- --

Кадры из фильма



Тех. данные (MI)

Код:
Общее
Уникальный идентификатор                 : 226230874865169503492078811405675387946 (0xAA327B4BC2E2431888F09F222117DC2A)
Полное имя                               : E:\тест\Франклин и Бэш.s03.720p.Boerboel-Frol\Franklin.and.Bash.s03e01.WEB-DL.720p.Rus.Eng.To4ka.TV.mkv
Формат                                   : Matroska
Версия формата                           : Version 1
Размер файла                             : 1,44 Гбайт
Продолжительность                        : 42 м.
Общий поток                              : 4898 Кбит/сек
Дата кодирования                         : UTC 2013-07-10 16:06:37
Программа кодирования                    : mkvmerge v2.0.0 ('After The Rain Has Fallen') built on Jan 13 2007 19:58:56
Библиотека кодирования                   : libebml v0.7.7 + libmatroska v0.8.0
Видео
Идентификатор                            : 1
Формат                                   : AVC
Формат/Информация                        : Advanced Video Codec
Профиль формата                          : High@L3.1
Параметр CABAC формата                   : Нет
Параметр ReFrames формата                : 2 кадра
Идентификатор кодека                     : V_MPEG4/ISO/AVC
Продолжительность                        : 42 м.
Битрейт                                  : 4033 Кбит/сек
Ширина                                   : 1280 пикселей
Высота                                   : 718 пикселей
Соотношение сторон                       : 16:9
Режим частоты кадров                     : Постоянный
Частота кадров                           : 23,976 кадра/сек
Цветовое пространство                    : YUV
Субдискретизация насыщенности            : 4:2:0
Битовая глубина                          : 8 бит
Тип развёртки                            : Прогрессивная
Бит/(Пиксели*Кадры)                      : 0.183
Размер потока                            : 1,19 Гбайт (82%)
Язык                                     : English
Default                                  : Да
Forced                                   : Нет
Основные цвета                           : BT.709
Характеристики трансфера                 : BT.709
Коэффициенты матрицы                     : BT.709
Аудио #1
Идентификатор                            : 2
Формат                                   : AC-3
Формат/Информация                        : Audio Coding 3
Расширение режима                        : CM (complete main)
Параметр Endianness формата              : Big
Идентификатор кодека                     : A_AC3
Продолжительность                        : 42 м.
Вид битрейта                             : Постоянный
Битрейт                                  : 384 Кбит/сек
Каналы                                   : 6 каналов
Расположение каналов                     : Front: L C R, Side: L R, LFE
Частота                                  : 48,0 КГц
Битовая глубина                          : 16 бит
Метод сжатия                             : С потерями
Размер потока                            : 116 Мбайт (8%)
Заголовок                                : To4ka.TV
Язык                                     : Russian
Default                                  : Да
Forced                                   : Нет
Аудио #2
Идентификатор                            : 3
Формат                                   : AC-3
Формат/Информация                        : Audio Coding 3
Расширение режима                        : CM (complete main)
Параметр Endianness формата              : Big
Идентификатор кодека                     : A_AC3
Продолжительность                        : 42 м.
Вид битрейта                             : Постоянный
Битрейт                                  : 384 Кбит/сек
Каналы                                   : 6 каналов
Расположение каналов                     : Front: L C R, Side: L R, LFE
Частота                                  : 48,0 КГц
Битовая глубина                          : 16 бит
Метод сжатия                             : С потерями
Размер потока                            : 116 Мбайт (8%)
Язык                                     : English
Default                                  : Нет
Forced                                   : Нет

_________________
[Торрент-статистика]
[Профиль]  [ЛС] 
Показать сообщения:    
Ответить на тему

Текущее время: Сегодня 23:51

Часовой пояс: GMT + 4



Вы не можете начинать темы
Вы не можете отвечать на сообщения
Вы не можете редактировать свои сообщения
Вы не можете удалять свои сообщения
Вы не можете голосовать в опросах
Вы не можете прикреплять файлы к сообщениям
Вы не можете скачивать файлы