Компаньоны / Франклин и Бэш / Franklin & Bash / Сезон: 2 / Серии: 1-10 (10) (Джейсон Энслер, Ричи Кин, Майк Листо) [2012 г., комедия, криминал, WEB-DL 720p] MVO (SET)

Ответить на тему
 
Автор
Сообщение

awk05 ®

Пол:

Стаж: 6 лет 2 месяца

Сообщений: 1351

Репутация: 275 [+] [-]

Откуда: Западная Украина Ривне

Пост 14-Сен-2014 17:39

[Цитировать] 

--Компаньоны / Franklin & Bash«Ripping the law a new one»-- Год выпуска: 2012
Страна: США
Жанр: комедия, криминал
Сезон/Серия: Сезон:2 /Серия 1-10 из 10
Продолжительность: 10 ~ 00:45:00
Перевод: профессиональный многоголосый закадровый
Озвучка / Автор перевода: (SET)
Субтитры: отсутствуют--Режиссёр: Джейсон Энслер, Ричи Кин, Майк Листо--В ролях: Брекин Мейер, Стефани Карпентьери, Клэр Коффи, Майкл Ковингтон, Карина Родригез, Марк-Пол Госселаар, Рид Даймонд, Дэна Дэвис, Гарсель Бове, Кумэйл Нанджиани и др.--Описание: Двое молодых, уличных адвоката, после выигрыша крупного дела над легендарной юридической фирмой были приняты на работу её основателем, однако из-за его неэтичного поведения адвокаты постоянно оказываются в неприятностях.--Качество видео: WEB-DL 720p
Формат видео: MKV
Видео кодек: AVC (High@L3.1)
Аудио кодек: AC-3
Видео: AVC, 1280x720 (16:9), 23.976 fps, 4 054 Kbps (0.183 bit/pixel)
Аудио 1: AC-3, 48.0 KHz, 2 ch, 192 Kbps, CBR, 16 bits [Русский]
Аудио 2: AC-3, 48.0 KHz, 6 ch, 384 Kbps, CBR, 16 bits [Английский] -- --

Кадры из фильма



Тех. данные (MI)

Код:
Общее
Уникальный идентификатор : 254506148062274844092280752631345804319 (0xBF7819E583F8101D9C35B4197E8F741F)
Полное имя : Franklin.and.Bash.s02e01.WEB-DL.720p.Rus.Eng.SET.mkv
Формат : Matroska
Версия формата : Version 4 / Version 2
Размер файла : 1,39 Гбайт
Продолжительность : 42 м.
Общий поток : 4724 Кбит/сек
Дата кодирования : UTC 2014-03-18 09:49:06
Программа кодирования : mkvmerge v6.3.0 ('You can't stop me!') built on Jun 28 2013 20:09:41
Библиотека кодирования : libebml v1.3.0 + libmatroska v1.4.0
Видео
Идентификатор : 1
Формат : AVC
Формат/Информация : Advanced Video Codec
Профиль формата : High@L3.1
Параметр CABAC формата : Нет
Параметр ReFrames формата : 2 кадра
Идентификатор кодека : V_MPEG4/ISO/AVC
Продолжительность : 42 м.
Битрейт : 4054 Кбит/сек
Ширина : 1280 пикселей
Высота : 720 пикселей
Соотношение сторон : 16:9
Режим частоты кадров : Постоянный
Частота кадров : 23,976 кадра/сек
Цветовое пространство : YUV
Субдискретизация насыщенности : 4:2:0
Битовая глубина : 8 бит
Тип развёртки : Прогрессивная
Бит/(Пиксели*Кадры) : 0.183
Размер потока : 1,19 Гбайт (86%)
Язык : English
Default : Да
Forced : Нет
Основные цвета : BT.709
Характеристики трансфера : BT.709
Коэффициенты матрицы : BT.709
Аудио #1
Идентификатор : 2
Формат : AC-3
Формат/Информация : Audio Coding 3
Расширение режима : CM (complete main)
Параметр Endianness формата : Big
Идентификатор кодека : A_AC3
Продолжительность : 42 м.
Вид битрейта : Постоянный
Битрейт : 192 Кбит/сек
Каналы : 2 канала
Расположение каналов : Front: L R
Частота : 48,0 КГц
Битовая глубина : 16 бит
Метод сжатия : С потерями
Размер потока : 57,8 Мбайт (4%)
Язык : Russian
Default : Да
Forced : Нет
Аудио #2
Идентификатор : 3
Формат : AC-3
Формат/Информация : Audio Coding 3
Расширение режима : CM (complete main)
Параметр Endianness формата : Big
Идентификатор кодека : A_AC3
Продолжительность : 42 м.
Вид битрейта : Постоянный
Битрейт : 384 Кбит/сек
Каналы : 6 каналов
Расположение каналов : Front: L C R, Side: L R, LFE
Частота : 48,0 КГц
Битовая глубина : 16 бит
Метод сжатия : С потерями
Размер потока : 116 Мбайт (8%)
Язык : English
Default : Нет
Forced : Нет

_________________
[Торрент-статистика]
[Профиль]  [ЛС] 
Показать сообщения:    
Ответить на тему

Текущее время: Сегодня 02:52

Часовой пояс: GMT + 4



Вы не можете начинать темы
Вы не можете отвечать на сообщения
Вы не можете редактировать свои сообщения
Вы не можете удалять свои сообщения
Вы не можете голосовать в опросах
Вы не можете прикреплять файлы к сообщениям
Вы не можете скачивать файлы