Компаньоны / Франклин и Бэш / Franklin & Bash / Сезон: 1 / Серии: 1-10 (10) (Джейсон Энслер) [2011, комедия, криминал, WEB-DL 720p] MVO (SET) + Rus subs

Ответить на тему
 
Автор
Сообщение

awk05 ®

Пол:

Стаж: 6 лет 4 месяца

Сообщений: 1348

Репутация: 275 [+] [-]

Откуда: Западная Украина Ривне

Пост 14-Сен-2014 17:17

[Цитировать] 

--Компаньоны / Franklin & Bash«Ripping the law a new one»-- Год выпуска: 2011
Страна: США
Жанр: комедия, криминал
Сезон/Серия: Сезон:1 /Серия 1-10 из 10
Продолжительность: 10 ~ 00:45:00
Перевод: профессиональный многоголосый закадровый
Озвучка / Автор перевода: (SET)
Субтитры: Русские--Режиссёр: Джейсон Энслер, Ричи Кин, Майк Листо--В ролях: Брекин Мейер, Стефани Карпентьери, Клэр Коффи, Майкл Ковингтон, Карина Родригез, Марк-Пол Госселаар, Рид Даймонд, Дэна Дэвис, Гарсель Бове, Кумэйл Нанджиани и др.--Описание: Двое молодых, уличных адвоката, после выигрыша крупного дела над легендарной юридической фирмой были приняты на работу её основателем, однако из-за его неэтичного поведения адвокаты постоянно оказываются в неприятностях.--Качество видео: WEB-DL 720p
Формат видео: MKV
Видео кодек: AVC (High@L3.1)
Аудио кодек: AC-3
Видео: AVC, 1280x720 (16:9), 23.976 fps, 3 897 Kbps (0.176 bit/pixel)
Аудио 1: AC-3, 48.0 KHz, 2 ch, 192 Kbps, CBR, 16 bits [Русский]
Аудио 2: AC-3, 48.0 KHz, 6 ch, 384 Kbps, CBR, 16 bits [Английский] -- --

Кадры из фильма



Тех. данные (MI)

Код:
General
Unique ID : 245018357110606513913642730443518443027 (0xB854D1AFC6CFFAEEA5A3DD880482FE13)
Complete name : Franklin.and.Bash.s01e01.webdl.720p.NewStudio.TV.mkv
Format : Matroska
File size : 1.40 GiB
Duration : 43mn 47s
Overall bit rate : 4 563 Kbps
Movie name : Franklin.and.Bash.S01E07.720p.WEB.DL.DD5.1.H.264.TB.mkv 843
Encoded date : UTC 2011-09-21 20:41:40
Writing application : mkvmerge v2.9.9 ('Tutu') built on Nov 25 2009 21:13:32
Writing library : libebml v0.7.9 + libmatroska v0.8.1
Video
ID : 1
Format : AVC
Format/Info : Advanced Video Codec
Format profile : High@L3.1
Format settings, CABAC : No
Format settings, ReFrames : 2 frames
Codec ID : V_MPEG4/ISO/AVC
Duration : 43mn 47s
Bit rate mode : Variable
Bit rate : 3 897 Kbps
Maximum bit rate : 64 bps
Width : 1 280 pixels
Height : 720 pixels
Display aspect ratio : 16:9
Frame rate : 23.976 fps
Color space : YUV
Chroma subsampling : 4:2:0
Bit depth : 8 bits
Scan type : Progressive
Bits/(Pixel*Frame) : 0.176
Stream size : 1.19 GiB (85%)
Language : English
Color primaries : BT.709-5, BT.1361, IEC 61966-2-4, SMPTE RP177
Transfer characteristics : BT.709-5, BT.1361
Matrix coefficients : BT.709-5, BT.1361, IEC 61966-2-4 709, SMPTE RP177
Audio #1
ID : 2
Format : AC-3
Format/Info : Audio Coding 3
Mode extension : CM (complete main)
Codec ID : A_AC3
Duration : 43mn 47s
Bit rate mode : Constant
Bit rate : 192 Kbps
Channel(s) : 2 channels
Channel positions : Front: L R
Sampling rate : 48.0 KHz
Bit depth : 16 bits
Compression mode : Lossy
Stream size : 60.1 MiB (4%)
Audio #2
ID : 3
Format : AC-3
Format/Info : Audio Coding 3
Mode extension : CM (complete main)
Codec ID : A_AC3
Duration : 43mn 47s
Bit rate mode : Constant
Bit rate : 384 Kbps
Channel(s) : 6 channels
Channel positions : Front: L C R, Side: L R, LFE
Sampling rate : 48.0 KHz
Bit depth : 16 bits
Compression mode : Lossy
Stream size : 120 MiB (8%)
Title : Английский
Language : English

_________________
[Торрент-статистика]
[Профиль]  [ЛС] 
Показать сообщения:    
Ответить на тему

Текущее время: Сегодня 23:38

Часовой пояс: GMT + 4



Вы не можете начинать темы
Вы не можете отвечать на сообщения
Вы не можете редактировать свои сообщения
Вы не можете удалять свои сообщения
Вы не можете голосовать в опросах
Вы не можете прикреплять файлы к сообщениям
Вы не можете скачивать файлы