Родина / Чужой среди своих / Homeland / Сезон: 1 / серии: 1-12 из 12 (Майкл Куэста, Лесли Линка Глаттер, Кларк Джонсон) [2011, Триллер, Драма, Детектив, WEB-DLRip 720p ] (LostFilm)

Ответить на тему
 
Автор
Сообщение

awk05 ®

Пол:

Стаж: 6 лет 2 месяца

Сообщений: 1351

Репутация: 275 [+] [-]

Откуда: Западная Украина Ривне

Пост 13-Сен-2014 01:44

[Цитировать] 

--Родина / Homeland«The nation sees a hero. She sees a threat.»-- Год выпуска: 2011
Страна: США
Жанр: Триллер, Драма, Детектив
Сезон/Серия: Сезон:1 /Серия 1-12 из 12
Продолжительность серии: 12 х ~01:24:00
Перевод: Профессиональный многоголосый закадровый
Озвучка / Автор перевода: (LostFilm)
Субтитры: отсутствуют--Режиссер: Майкл Куэста, Лесли Линка Глаттер, Кларк Джонсон--В ролях: Клэр Дэйнс, Дамиан Льюис, Морена Баккарин, Дэвид Хэрвуд, Диего Клаттенхофф, Джексон Паке, Моргон Сэйлор, Мэнди Пэтинкин, Храч Титизиан, Дэвид Марсиано--Описание: Сержанта морской пехоты Николаса Броди (Дэмиэн Льюис) считают пропавшим без вести с 2003 года и предположительно погибшим в бою. Тем не менее, сержанта Броди находят в ходе спецоперации на секретной базе террористов. Эксперт по Ближнему Востоку ЦРУ Кэрри Мэтисон (Клэр Дэйнс) считает, что в настоящее время сержант Броди завербован Аль-Каидой и оставлен «спасшему» его отряду спецподразделения Дельта для возвращения в США и проведения террористической атаки на их территории. Руководство страны и общественность верят, что сержант Броди — герой войны, и это ещё больше усложняет расследование.--Качество видео: WEB-DLRip 720p
Формат видео: MKV
Видео кодек: AVC (High@L3.1)
Аудио кодек: AC-3
Видео: AVC, 1280x720 (16:9), 23.976 fps, 4 041 Kbps (0.183 bit/pixel)
Аудио: AC-3, 44.1 KHz, 2 ch, 384 Kbps, CBR, 16 bits [Русский] -- --

Список серий

01. Пилот (Pilot)
02. Благодать (Grace)
03. С чистого листа (Clean Skin)
04. Эгоист (Semper I)
05. Слепая зона (Blind Spot)
06. Хороший солдат (The Good Soldier)
07. Выходные (The Weekend)
08. Ахиллесова пята (Achilles Heel)
09. Перекрестный огонь (Crossfire)
10. Представитель Броуди (Representative Brody)
11. Жилет (The Vest)
12. Морпех 1 (Marine one)

Знаете ли Вы, что...

  • Некоторые фотографии, которые вкраплены в вступительные титры, являются настоящими фотографиями Клэр Дэйнс в молодости.
  • Сына Абу Назира зовут Иса (Isa). Говорящие на арабском языке мусульмане так зовут Иисуса.
  • Чтобы подготовиться к роли в сериале, Клэр Дэйнс встречалась с сотрудниками ЦРУ, а также просматривала видеофильмы, на которых присутствовали больные с биполярным расстройством. К тому же она консультировалась с писательницей Джули Фаст, которая страдает от того же расстройства.
  • Лора Фрейзер первоначально играла Джессику Броуди в пилоте, но была заменена Мореной Баккарини перед первым выходом в эфир.
  • Во втором сезоне присутствует ляп. В 11-ой серии второго сезона в сцене на заброшенной мельнице спецназовцы ФБР настигают Абу Назира, он провоцирует их на огонь резким движением руки и в следующем кадре Кэрри отчётливо слышит три одиночных оружейных выстрела. В 12-ой серии в сцене ритуального омовения тела
  • Абу Назира на корабле ВМФ США, на груди убитого видны по крайней мере 5 свежих пулевых ранений и одно — ниже груди справа.

Кадры из фильма



Тех. данные (MI)

Код:
Общее
Уникальный идентификатор                 : 223235841354550040345925492358563739256 (0xA7F1A8BE383735ABA34EB3D7DF4BB678)
Полное имя                               : E:\тест\Родина\Homeland 1 - LostFilm.TV [720p]\Homeland.S01E12.HD.rus.LostFilm.TV.mkv
Формат                                   : Matroska
Версия формата                           : Version 2
Размер файла                             : 2,62 Гбайт
Продолжительность                        : 1 ч. 24 м.
Общий поток                              : 4426 Кбит/сек
Дата кодирования                         : UTC 2011-12-30 21:32:17
Программа кодирования                    : mkvmerge v4.2.0 ('No Talking') сборка от Jul 28 2010 18:38:23
Библиотека кодирования                   : libebml v1.0.0 + libmatroska v1.0.0
Видео
Идентификатор                            : 1
Формат                                   : AVC
Формат/Информация                        : Advanced Video Codec
Профиль формата                          : High@L3.1
Параметр CABAC формата                   : Да
Параметр ReFrames формата                : 4 кадра
Идентификатор кодека                     : V_MPEG4/ISO/AVC
Продолжительность                        : 1 ч. 24 м.
Битрейт                                  : 4041 Кбит/сек
Ширина                                   : 1280 пикселей
Высота                                   : 720 пикселей
Соотношение сторон                       : 16:9
Режим частоты кадров                     : Постоянный
Частота кадров                           : 23,976 кадра/сек
Цветовое пространство                    : YUV
Субдискретизация насыщенности            : 4:2:0
Битовая глубина                          : 8 бит
Тип развёртки                            : Прогрессивная
Бит/(Пиксели*Кадры)                      : 0.183
Размер потока                            : 2,34 Гбайт (89%)
Библиотека кодирования                   : x264 core 112 r1834 a51816a
Настройки программы                      : cabac=1 / ref=1 / deblock=1:0:0 / analyse=0x3:0x113 / me=hex / subme=7 / psy=1 / psy_rd=1.00:0.00 / mixed_ref=0 / me_range=16 / chroma_me=1 / trellis=1 / 8x8dct=1 / cqm=0 / deadzone=21,11 / fast_pskip=1 / chroma_qp_offset=-2 / threads=6 / sliced_threads=0 / nr=0 / decimate=1 / interlaced=0 / constrained_intra=0 / bframes=3 / b_pyramid=2 / b_adapt=1 / b_bias=0 / direct=1 / weightb=1 / open_gop=0 / weightp=2 / keyint=250 / keyint_min=25 / scenecut=40 / intra_refresh=0 / rc_lookahead=40 / rc=2pass / mbtree=1 / bitrate=4041 / ratetol=1.0 / qcomp=0.60 / qpmin=0 / qpmax=51 / qpstep=4 / cplxblur=20.0 / qblur=0.5 / ip_ratio=1.40 / aq=1:1.00
Default                                  : Да
Forced                                   : Нет
Аудио
Идентификатор                            : 2
Формат                                   : AC-3
Формат/Информация                        : Audio Coding 3
Расширение режима                        : CM (complete main)
Параметр Endianness формата              : Big
Идентификатор кодека                     : A_AC3
Продолжительность                        : 1 ч. 24 м.
Вид битрейта                             : Постоянный
Битрейт                                  : 384 Кбит/сек
Каналы                                   : 2 канала
Расположение каналов                     : Front: L R
Частота                                  : 44,1 КГц
Битовая глубина                          : 16 бит
Метод сжатия                             : С потерями
Размер потока                            : 232 Мбайт (9%)
Язык                                     : Russian
Default                                  : Да
Forced                                   : Да

_________________
[Торрент-статистика]
[Профиль]  [ЛС] 
Показать сообщения:    
Ответить на тему

Текущее время: Сегодня 02:47

Часовой пояс: GMT + 4



Вы не можете начинать темы
Вы не можете отвечать на сообщения
Вы не можете редактировать свои сообщения
Вы не можете удалять свои сообщения
Вы не можете голосовать в опросах
Вы не можете прикреплять файлы к сообщениям
Вы не можете скачивать файлы