Любовницы / Mistresses (US) / Сезон: 1 / Серии: 1-13 из 13 (Константин Макрис, Чери Ноулан, Дэвид Пэймер) [2013, драма, триллер, WEB-DL 720p] Dub (Fox Life) + Original

Ответить на тему
 
Автор
Сообщение

awk05 ®

Пол:

Стаж: 5 лет 11 месяцев

Сообщений: 1352

Репутация: 275 [+] [-]

Откуда: Западная Украина Ривне

Пост 12-Сен-2014 22:42

[Цитировать] 

--Любовницы / Mistresses (US)-- Год выпуска: 2013
Страна: США, Великобритания | ABC
Жанр: драма, триллер
Сезон/Серия: Сезон:1 / Серия 1-13 из 13
Продолжительность: 13 x ~00:43:00
Перевод: Профессиональный (полное дублирование)
Озвучка / Автор перевода: Fox Life
Субтитры: отсутствуют--Режиссёр: Константин Макрис, Чери Ноулан, Дэвид Пэймер и др.--В ролях: Алисса Милано, Рошелль Эйтс, Джесс Макаллан, Ким Юнджин, Корина Мессиа, Эрик Стоклин, Эшли Ньюбро, Темина Санни, Джейден Уайт, Бретт Такер и др.--Описание: В центре сюжета находится жизнь четырёх подруг, каждая из которой находится в сложных и опасных отношениях.
Американский драматический телесериал, разработанный К. Й. Стейнберг и основанный на одноименном британском телесериале 2008—2010 годов.--Качество видео: WEB-DL 720p
Формат видео: MKV
Видео кодек: AVC (High@L3.1)
Аудио кодек: AC-3
Видео: AVC, 1280x720 (16:9), 23.976 fps, 3 807 Kbps (0.172 bit/pixel)
Аудио 1: AC-3, 48.0 KHz, 6 ch, 192 Kbps, CBR, 16 bits [Русский]
Аудио 2: AC-3, 48.0 KHz, 6 ch, 384 Kbps, CBR, 16 bits [Английский] -- --

Список серий

01 «Pilot»
02 «The Morning After»
03 «Breaking and Entering»
04 «A Kiss Is Just a Kiss?»
05 «Decisions, Decisions»
06 «Payback»
07 «All In»
08 «Ultimatum»
09 «Guess Who's Coming to Dinner»
10 «Indecent Proposals»
11 «Full Disclosure»
12 «When One Door Closes...»
13 «I Choose You»

Тех. данные (MI)

Код:
Общее
Уникальный идентификатор : 208393937976948035594730780156997691771 (0x9CC73668E18D886F8D1785811CA8697B)
Полное имя : F:\временное\Mistresses Season 1 720p DUB (Fox Life)\Mistresses.s01e02.WEBDL.720p.NewStudio.TV.mkv
Формат : Matroska
Версия формата : Version 2
Размер файла : 1,45 Гбайт
Продолжительность : 43 м.
Общий поток : 4831 Кбит/сек
Дата кодирования : UTC 2013-09-09 19:38:13
Программа кодирования : mkvmerge v2.9.9 ('Tutu') built on Nov 25 2009 21:13:32
Библиотека кодирования : libebml v0.7.9 + libmatroska v0.8.1
Видео
Идентификатор : 1
Формат : AVC
Формат/Информация : Advanced Video Codec
Профиль формата : High@L3.1
Параметр CABAC формата : Нет
Параметр ReFrames формата : 2 кадра
Идентификатор кодека : V_MPEG4/ISO/AVC
Продолжительность : 43 м.
Битрейт : 4159 Кбит/сек
Ширина : 1280 пикселей
Высота : 720 пикселей
Соотношение сторон : 16:9
Режим частоты кадров : Постоянный
Частота кадров : 23,976 кадра/сек
Цветовое пространство : YUV
Субдискретизация насыщенности : 4:2:0
Битовая глубина : 8 бит
Тип развёртки : Прогрессивная
Бит/(Пиксели*Кадры) : 0.188
Размер потока : 1,25 Гбайт (86%)
Язык : English
Default : Нет
Forced : Нет
Основные цвета : BT.709
Характеристики трансфера : BT.709
Коэффициенты матрицы : BT.709
Аудио #1
Идентификатор : 2
Формат : AC-3
Формат/Информация : Audio Coding 3
Расширение режима : CM (complete main)
Параметр Endianness формата : Big
Идентификатор кодека : A_AC3
Продолжительность : 43 м.
Вид битрейта : Постоянный
Битрейт : 192 Кбит/сек
Каналы : 2 канала
Расположение каналов : Front: L R
Частота : 48,0 КГц
Битовая глубина : 16 бит
Метод сжатия : С потерями
Размер потока : 59,2 Мбайт (4%)
Язык : Russian
Default : Да
Forced : Да
Аудио #2
Идентификатор : 3
Формат : AC-3
Формат/Информация : Audio Coding 3
Расширение режима : CM (complete main)
Параметр Endianness формата : Big
Идентификатор кодека : A_AC3
Продолжительность : 43 м.
Вид битрейта : Постоянный
Битрейт : 384 Кбит/сек
Каналы : 6 каналов
Расположение каналов : Front: L C R, Side: L R, LFE
Частота : 48,0 КГц
Битовая глубина : 16 бит
Метод сжатия : С потерями
Размер потока : 118 Мбайт (8%)
Язык : English
Default : Нет
Forced : Нет

Кадры из фильма


_________________
[Торрент-статистика]
[Профиль]  [ЛС] 
Показать сообщения:    
Ответить на тему

Текущее время: Сегодня 01:40

Часовой пояс: GMT + 4



Вы не можете начинать темы
Вы не можете отвечать на сообщения
Вы не можете редактировать свои сообщения
Вы не можете удалять свои сообщения
Вы не можете голосовать в опросах
Вы не можете прикреплять файлы к сообщениям
Вы не можете скачивать файлы