Тайные связи / Тайные операции / Covert Affairs / Сезон:5 /Серия 1-11 из 16 (Стефен Т. Кэй, Феликс Энрикез Алькала, Аллен Крокер)[2014, боевик, драма, WEB-DLRip 720p] MVO Fox Life (Обновляемая)

Ответить на тему
 
Автор
Сообщение

awk05 ®

Пол:

Стаж: 5 лет 11 месяцев

Сообщений: 1352

Репутация: 275 [+] [-]

Откуда: Западная Украина Ривне

Пост 12-Сен-2014 17:42

[Цитировать] 

-- Тайные связи / Тайные операции / Covert Affairs«Single woman. Double life»-- Год выпуска: 2014
Страна: США
Жанр: Драма, Детектив
Сезон/Серия: Сезон:5 /Серия 1-11 из 16
Продолжительность: 16 х ~00:44:00
Перевод: Многоголосый закадровый, профессиональный
Озвучка / Автор перевода: Fox Life
Субтитры: нет--Режиссёр: Стефен Т. Кэй, Феликс Энрикез Алькала, Аллен Крокер--В ролях: Пайпер Перабо, Кристофер Горам, Кари Матчетт, Питер Галлахер, Энн Дудек, Сендхил Рамамурти, Грегори Итцин, Дилан Тейлор, Хилл Харпер, Аделаида Хэмпфри--Описание: На новой работе всегда нелегко – особенно, если тебе предстоит работать в ЦРУ. Энни Уолкер (Пайпер Перабо) бегло говорит на шести языках, объездила весь мир и является самой лучшей ученицей в школе агентов ЦРУ. Но это все-равно не дает никакого объяснения, почему за месяц до окончания обучения, ее внезапно приглашают в главный офис ЦРУ и предлагают работу агента. Также для нее остается неизвестным, что в ее прошлом есть что-то или кто-то, очень интересующий ее боссов. Эгги Андерсон (Кристофер Горхем), техэксперт, потерявший зрение на одном из заданий, становится для Энни проводником и верным помощником в огромном мире интриг, опасности и бюрократии.--Качество видео: WEB-DLRip 720p
Формат видео: MKV
Видео кодек: AVC (High@L3.1)
Аудио кодек: AC-3
Видео: AVC, 1280x720 (16:9), 23.976 fps, 4 100 Kbps (0.186 bit/pixel)
Аудио 1: AC-3, 48.0 KHz, 6 ch, 192 Kbps, CBR, 16 бит [RUS]
Аудио 2: AC-3, 48.0 KHz, 6 ch, 384 Kbps, CBR, 16 бит [ENG] -- --

Список серий

01 - Shady Lane
02 - False Skorpion
03 - Unseen Power of the Picket Fence
04 - Silence Kit
05 - Elevate Me Later
06 - Embassy Row
07 - Brink of the Clouds
08 - Grounded
09 - Spit on a Stranger
10 - Sensitive Euro Man
11 -

Скриншоты



Тех. данные (MI)

Код:
Общее
Уникальный идентификатор                 : 201400247046231266302084822493618677204 (0x978446D32560AE76823516B64A52A5D4)
Полное имя                               : E:\СЕРИАЛЫ\Тайные связи\Covert Affairs 5\Covert.Affairs.s05e01.WEBDL.720p.NewStudio.TV.mkv
Формат                                   : Matroska
Версия формата                           : Version 2
Размер файла                             : 1,46 Гбайт
Продолжительность                        : 43 м.
Общий поток                              : 4771 Кбит/сек
Дата кодирования                         : UTC 2014-09-12 08:33:24
Программа кодирования                    : mkvmerge v2.9.9 ('Tutu') built on Nov 25 2009 21:13:32
Библиотека кодирования                   : libebml v0.7.9 + libmatroska v0.8.1
Видео
Идентификатор                            : 1
Формат                                   : AVC
Формат/Информация                        : Advanced Video Codec
Профиль формата                          : High@L3.1
Параметр CABAC формата                   : Нет
Параметр ReFrames формата                : 2 кадра
Идентификатор кодека                     : V_MPEG4/ISO/AVC
Продолжительность                        : 43 м.
Битрейт                                  : 4100 Кбит/сек
Ширина                                   : 1280 пикселей
Высота                                   : 720 пикселей
Соотношение сторон                       : 16:9
Режим частоты кадров                     : Постоянный
Частота кадров                           : 23,976 кадра/сек
Цветовое пространство                    : YUV
Субдискретизация насыщенности            : 4:2:0
Битовая глубина                          : 8 бит
Тип развёртки                            : Прогрессивная
Бит/(Пиксели*Кадры)                      : 0.186
Размер потока                            : 1,26 Гбайт (86%)
Язык                                     : English
Default                                  : Нет
Forced                                   : Нет
Основные цвета                           : BT.709
Характеристики трансфера                 : BT.709
Коэффициенты матрицы                     : BT.709
Аудио #1
Идентификатор                            : 2
Формат                                   : AC-3
Формат/Информация                        : Audio Coding 3
Расширение режима                        : CM (complete main)
Параметр Endianness формата              : Big
Идентификатор кодека                     : A_AC3
Продолжительность                        : 43 м.
Вид битрейта                             : Постоянный
Битрейт                                  : 192 Кбит/сек
Каналы                                   : 2 канала
Расположение каналов                     : Front: L R
Частота                                  : 48,0 КГц
Битовая глубина                          : 16 бит
Метод сжатия                             : С потерями
Размер потока                            : 60,3 Мбайт (4%)
Язык                                     : Russian
Default                                  : Да
Forced                                   : Да
Аудио #2
Идентификатор                            : 3
Формат                                   : AC-3
Формат/Информация                        : Audio Coding 3
Расширение режима                        : CM (complete main)
Параметр Endianness формата              : Big
Идентификатор кодека                     : A_AC3
Продолжительность                        : 43 м.
Вид битрейта                             : Постоянный
Битрейт                                  : 384 Кбит/сек
Каналы                                   : 6 каналов
Расположение каналов                     : Front: L C R, Side: L R, LFE
Частота                                  : 48,0 КГц
Битовая глубина                          : 16 бит
Метод сжатия                             : С потерями
Размер потока                            : 121 Мбайт (8%)
Язык                                     : English
Default                                  : Нет
Forced                                   : Нет

Раздача ведется путем добавления новых серий

Когда раздача ведётся путём добавления новых серий, при каждом добавлении создётся новый торрент. Чтобы начать докачку новой серии, пользователям необходимо сделать следующее:
(1) остановить скачивание,
(2) удалить старый торрент у себя из клиента (старые серии удалять не надо),
(3) скачать новый торрент и запустить его у себя в клиенте вместо старого, при этом указать клиенту путь в старую папку, куда и должно происходить скачивание новых серий.
Ваш клиент при этом должен произвести хеширование (проверку) старой папки (если не производит сам - помогите ему сделать это), и будет докачивать только те серии, которых у вас ещё нет. Старые серии при этом не удаляются, а продолжают раздаваться!
Eсли вы уже удалили старые серии, то предотвратить повторную закачку старых серий можно, отжав галочку в соответсвующих местах при запуске нового торрента. По возможности, желательно не удалять старые серии как можно дольше, чтобы релизёр не столько продолжал раздавать старые серии, а смог сконцентрироваться на новых.

_________________
[Торрент-статистика]
[Профиль]  [ЛС] 
Показать сообщения:    
Ответить на тему

Текущее время: Сегодня 01:41

Часовой пояс: GMT + 4



Вы не можете начинать темы
Вы не можете отвечать на сообщения
Вы не можете редактировать свои сообщения
Вы не можете удалять свои сообщения
Вы не можете голосовать в опросах
Вы не можете прикреплять файлы к сообщениям
Вы не можете скачивать файлы