Подпольная империя / Boardwalk Empire Сезон:1-4 / Серия 1-48 из 48 (Мартин Скорсезе, Тимоти Ван Паттен, Джереми Подесва, Аллен Коултер)[2010-2013 г., Драма, криминал, BDRip 720p]

Ответить на тему
 
Автор
Сообщение

awk05 ®

Пол:

Стаж: 6 лет 3 месяца

Сообщений: 1351

Репутация: 275 [+] [-]

Откуда: Западная Украина Ривне

Пост 09-Сен-2014 16:22

[Цитировать] 

--Подпольная империя / Boardwalk Empire«Atlantic City, 1920. When alcohol was outlawed, outlaws became kings»-- Год выпуска: 2010-2013
Жанр: Драма, криминал
Выпущено: США, Home Box Office (HBO), Leverage Management, Closest to the Hole Productions
Сезон/Серия: Сезон:1-4 / Серия 1-48 из 48
Продолжительность: 48 x ~ 00:55:00
Перевод: Профессиональный многоголосый, авторский одноголосый
Озвучка / Автор перевода: Первый канал (1-2 сезон), LostFilm (1 и 3 сезон), АРК ТВ (4 сезон), Юрий Сербин (1-4 сезон)
Субтитры: Русские, английские--Режиссер: Мартин Скорсезе, Тимоти Ван Паттен, Джереми Подесва, Аллен Коултер--В ролях: Стив Бушеми, Майкл Питт, Келли Макдоналд, Майкл Шеннон, Ши Уигхэм, Алекса Палладино, Майкл Стулбарг, Стивен Грэм, Винсент Пьяцца, Джек Хьюстон, Майкл К. Уильямс, Энтони Лакиура, Пол Спаркс, Гретхен Мол, Люси Галина, Джози Галина, Деклан Мактик, Рори Мактик, Брэйди Нун, Коннор Нун, Пас де ла Уэрта, Дэбни Коулмэн, Чарли Кокс, Анатол Юсеф, Виктор Верхак, Роберт Клохесси, Кевин О’Рурк, Хезер Линд, Уильям Хилл, Адам Муччи, Эдвард МакГинти, Бобби Каннавейл, Грег Антоначчи, Жаклин Пеннвилль, Пол Джуд Летерски.--Описание: 1920 год. Через несколько часов Атлантик-Сити — столица развлечений и порока, как и вся Америка, вступит в эпоху «Сухого закона». Енох «Наки» Томпсон, днем — городской казначей, а ночью — хитроумный гангстер со связями на самом «верху», решает воспользоваться ситуацией и получить баснословные прибыли на подпольной торговле алкоголем. Однако не он один жаждет обогатиться на новом промысле…«Подпольная империя» разрушила все стереотипы относительно понятия «сериал», расширила рамки телевизионного формата и заслуживает самой высокой оценки, HBO выпускает качественные сериалы. Фильм рассказывает именно о становлении преступной империи. Период, когда еще одни бандиты были против наркотиков, считая их злом в любом виде, другие же готовы были идти во все тяжкие ради денег. «Подпольная империя» это очень качественный, многослойный, исторически точный, философский и предельно откровенный сериал о самом противоречивом и интересном времени в истории Америки. Сухой закон это всегда интересно - мафия, деньги, оружие, девочки, закон и бухло. Были подобные фильмы, но скажем из 100% - только 10% являются стоящими, этот сериал как раз из этого числа.--Качество видео: BDRip 720p
Формат видео: MKV
Видео кодек: AVC (High@L4.1)
Аудио кодек: AC-3
Видео 1 сезон: AVC, 1280x720 (16:9), 23.976 fps, 4 963 Kbps (0.225 bit/pixel)
Видео 2 сезон: AVC, 1280x720 (16:9), 23.976 fps, 6 300 Kbps (0.285 bit/pixel)
Видео 3 сезон: AVC, 1280x720 (16:9), 23.976 fps, 5 697 Kbps (0.258 bit/pixel)
Видео 4 сезон: AVC, 1280x720 (16:9), 23.976 fps, 3 332 Kbps (0.151 bit/pixel)
Аудио 1: AC-3, 48.0 KHz, 2 ch, 192 Kbps, CBR, 16 bits [Русский] (Первый канал) (1-2 сезон)
Аудио 2: AC-3, 48.0 KHz, 6 ch, 384 Kbps, CBR, 16 bits [Русский] (LostFilm) (1 и 3 сезон)
Аудио 3: AC-3, 48.0 KHz, 6 ch, 384 Kbps, CBR, 16 bits [Русский] (АРК ТВ) (4 сезон)
Аудио 4: AC-3, 48.0 KHz, 6 ch, 384 Kbps, CBR, 16 bits [Русский] (Юрий Сербин) (1-4 сезон)
Аудио 5: AC-3, 48.0 KHz, 6 ch, 384 Kbps, CBR, 16 bits [Английский] -- --

Список серий

1 сезон
01 Boardwalk Empire
02 The Ivory Tower
03 Broadway Limited
04 Anastasia
05 Nights in Ballygran
06 Family Limitation
07 Home
08 Hold Me in Paradise
09 Belle Femme
10 The Emerald City
11 Paris Green
12 A Return to Normalcy
2 сезон
01 21
02 Ourselves Alone
03 A Dangerous Maid
04 What Does the Bee Do?
05 Gimcrack & Bunkum
06 The Age of Reason
07 Peg of Old
08 Two Boats and a Lifeguard
09 Battle of the Century
10 Georgia Peaches
11 Under God's Power She Flourishes
12 To the Lost
3 сезон
01 Resolution
02 Spaghetti and Coffee
03 Bone for Tuna
04 Blue Bell Boy
05 You'd Be Surprised
06 Ging Gang Goolie
07 Sunday Best
08 The Pony
09 The Milkmaid's Lot
10 A Man, A Plan...
11 Two Imposters
12 Margate Sands
4 сезон
01 New York Sour
02 Resignation
03 Acres of Diamonds
04 All In
05 Erlkönig
06 The North Star
07 William Wilson
08 The Old Ship of Zion
09 Marriage and Hunting
10 White Horse Pike
11 Havre De Grace
12 Farewell Daddy Blues

Знаете ли Вы, что...

  • Реально существовавший Енох «Наки» Джонсон (Enoch L. Johnson) послужил прототипом для «Наки» Томпсона. Внешне Джонсон совершенно не походил на актера Стива Бушеми: это был представительный мужчина, высокий и грузный, с лысиной, — и напоминал скорее персонажа Тони Сопрано из сериала «Клан Сопрано». Создатель «Подпольной империи» Теренс Уинтер, также работавший над сценариями серий для «Клана Сопрано», хотел создать персонаж «Наки», отличающийся от образа, реального или сыгранного Джеймсом Гандольфини.
  • Для рекламы второго сезона сериала, начиная с 25 сентября 2011 года, в Нью-Йоркском метро были выпущены на линию исторические вагоны типа «Lo-V» (Low Voltage). Они выпускались с 1916 по 1925 год, и эксплуатировались до 1969 года. В составе исторического поезда были использованы вагоны N 5290, 5292 постройки 1917 года, и вагоны N 5443, 5483 постройки 1924 года. Вместо станции отправления и назначения, на вагонах были установлены таблички с рекламой сериала, рекламными постерами сериала также были обклеены вагоны изнутри. Исторический поезд ходил по маршруту IRT, от станций 42nd Street до станции 96th Street, с единственной остановкой на станции 72nd Street.
  • Атлантик-Сити двадцатых годов был в точности воссоздан в Бруклине (Нью-Йорк). Бюджет премьерной серии составил $18 млн, из которых $5 млн пошли на воссоздание городского квартала со всеми внутренними интерьерами, а также сооружение дощатого настила набережной длиной около 91,5 метров. Исполнительный продюсер и режиссер пилотной серии Мартин Скорсезе был настолько требователен в плане точности, что, например, настаивал, чтобы доски для настила были точно такого же размера, как они были в Атлантик-Сити в то время.

Кадры из фильма

Кадры из фильма 1 сезон:



Кадры из фильма 2 сезон:



Кадры из фильма 3 сезон:



Кадры из фильма 4 сезон:



Тех. данные (MI)

Тех. данные (MI) 1 сезон:

Общее
Уникальный идентификатор : 202223092542712766031508091364555009758 (0x9822C03D6FF8BFA59571F698D19AAEDE)
Полное имя : D:\Podpolnaya.imperiya.(1-5.sezon).2010-2014.x264.BDRip.720p_MediaClub\Podpolnaya.imperiya.(1.sezon).2010.x264.BDRip.720p_MediaClub\Podpolnaya.imperiya.(Prestupnaja.imperija).(1.sezon.12.seriya.iz.12).2010.x264.BDRip.720p_MediaClub.mkv
Формат : Matroska
Версия формата : Version 4 / Version 2
Размер файла : 2,71 Гбайт
Продолжительность : 1 ч. 0 м.
Общий поток : 6435 Кбит/сек
Название фильма : ReJIiZ MediaClub by BenderBEST
Дата кодирования : UTC 2014-05-05 17:10:17
Программа кодирования : mkvmerge v6.9.1 ('Blue Panther') 64bit built on Apr 18 2014 18:23:38
Библиотека кодирования : libebml v1.3.0 + libmatroska v1.4.1
Видео
Идентификатор : 1
Формат : AVC
Формат/Информация : Advanced Video Codec
Профиль формата : High@L4.1
Параметр CABAC формата : Да
Параметр ReFrames формата : 4 кадра
Идентификатор кодека : V_MPEG4/ISO/AVC
Продолжительность : 1 ч. 0 м.
Битрейт : 4963 Кбит/сек
Ширина : 1280 пикселей
Высота : 720 пикселей
Соотношение сторон : 16:9
Режим частоты кадров : Постоянный
Частота кадров : 23,976 кадра/сек
Цветовое пространство : YUV
Субдискретизация насыщенности : 4:2:0
Битовая глубина : 8 бит
Тип развёртки : Прогрессивная
Бит/(Пиксели*Кадры) : 0.225
Размер потока : 2,09 Гбайт (77%)
Библиотека кодирования : x264 core 116 r2057 0ba8a9c
Настройки программы : cabac=1 / ref=3 / deblock=1:-3:-3 / analyse=0x3:0x133 / me=umh / subme=10 / psy=1 / psy_rd=1.00:0.00 / mixed_ref=1 / me_range=32 / chroma_me=1 / trellis=2 / 8x8dct=1 / cqm=0 / deadzone=21,11 / fast_pskip=0 / chroma_qp_offset=-2 / threads=18 / sliced_threads=0 / nr=0 / decimate=0 / interlaced=0 / bluray_compat=0 / constrained_intra=0 / bframes=7 / b_pyramid=2 / b_adapt=2 / b_bias=0 / direct=3 / weightb=1 / open_gop=0 / weightp=2 / keyint=250 / keyint_min=23 / scenecut=40 / intra_refresh=0 / rc_lookahead=40 / rc=crf / mbtree=0 / crf=16.0 / qcomp=0.65 / qpmin=0 / qpmax=51 / qpstep=4 / vbv_maxrate=50000 / vbv_bufsize=50000 / crf_max=0.0 / nal_hrd=none / ip_ratio=1.25 / pb_ratio=1.25 / aq=1:0.65
Язык : English
Default : Да
Forced : Нет
Аудио #1
Идентификатор : 2
Формат : AC-3
Формат/Информация : Audio Coding 3
Расширение режима : CM (complete main)
Параметр Endianness формата : Big
Идентификатор кодека : A_AC3
Продолжительность : 1 ч. 0 м.
Вид битрейта : Постоянный
Битрейт : 192 Кбит/сек
Каналы : 2 канала
Расположение каналов : Front: L R
Частота : 48,0 КГц
Битовая глубина : 16 бит
Метод сжатия : С потерями
Размер потока : 82,8 Мбайт (3%)
Заголовок : Первый канал
Язык : Russian
Default : Да
Forced : Нет
Аудио #2
Идентификатор : 3
Формат : AC-3
Формат/Информация : Audio Coding 3
Расширение режима : CM (complete main)
Параметр Endianness формата : Big
Идентификатор кодека : A_AC3
Продолжительность : 1 ч. 0 м.
Вид битрейта : Постоянный
Битрейт : 384 Кбит/сек
Каналы : 6 каналов
Расположение каналов : Front: L C R, Side: L R, LFE
Частота : 48,0 КГц
Битовая глубина : 16 бит
Метод сжатия : С потерями
Размер потока : 166 Мбайт (6%)
Заголовок : LostFilm
Язык : Russian
Default : Нет
Forced : Нет
Аудио #3
Идентификатор : 4
Формат : AC-3
Формат/Информация : Audio Coding 3
Расширение режима : CM (complete main)
Параметр Endianness формата : Big
Идентификатор кодека : A_AC3
Продолжительность : 1 ч. 0 м.
Вид битрейта : Постоянный
Битрейт : 384 Кбит/сек
Каналы : 6 каналов
Расположение каналов : Front: L C R, Side: L R, LFE
Частота : 48,0 КГц
Битовая глубина : 16 бит
Метод сжатия : С потерями
Размер потока : 166 Мбайт (6%)
Заголовок : Сербин
Язык : Russian
Default : Нет
Forced : Нет
Аудио #4
Идентификатор : 5
Формат : AC-3
Формат/Информация : Audio Coding 3
Расширение режима : CM (complete main)
Параметр Endianness формата : Big
Идентификатор кодека : A_AC3
Продолжительность : 1 ч. 0 м.
Вид битрейта : Постоянный
Битрейт : 384 Кбит/сек
Каналы : 6 каналов
Расположение каналов : Front: L C R, Side: L R, LFE
Частота : 48,0 КГц
Битовая глубина : 16 бит
Метод сжатия : С потерями
Размер потока : 166 Мбайт (6%)
Язык : English
Default : Нет
Forced : Нет
Текст #1
Идентификатор : 6
Формат : UTF-8
Идентификатор кодека : S_TEXT/UTF8
Идентификатор кодека/Информация : UTF-8 Plain Text
Язык : Russian
Default : Нет
Forced : Нет
Текст #2
Идентификатор : 7
Формат : UTF-8
Идентификатор кодека : S_TEXT/UTF8
Идентификатор кодека/Информация : UTF-8 Plain Text
Язык : English
Default : Нет
Forced : Нет

Тех. данные (MI) 2 сезон:

Общее
Уникальный идентификатор : 249485505674382624893740917138116340963 (0xBBB1291D8875AE76B7CD15BF05406CE3)
Полное имя : D:\Podpolnaya.imperiya.(1-5.sezon).2010-2014.x264.BDRip.720p_MediaClub\Podpolnaya.imperiya.(2.sezon).2011.x264.BDRip.720p_MediaClub\Podpolnaya.imperiya.(Prestupnaja.imperija).(2.sezon.12.seriya.iz.12).2011.x264.BDRip.720p_MediaClub.mkv
Формат : Matroska
Версия формата : Version 4 / Version 2
Размер файла : 2,90 Гбайт
Продолжительность : 57 м.
Общий поток : 7264 Кбит/сек
Название фильма : ReJIiZ MediaClub by BenderBEST
Дата кодирования : UTC 2014-05-11 18:16:17
Программа кодирования : mkvmerge v6.9.1 ('Blue Panther') 64bit built on Apr 18 2014 18:23:38
Библиотека кодирования : libebml v1.3.0 + libmatroska v1.4.1
Видео
Идентификатор : 1
Формат : AVC
Формат/Информация : Advanced Video Codec
Профиль формата : High@L4.1
Параметр CABAC формата : Да
Параметр ReFrames формата : 9 кадров
Идентификатор кодека : V_MPEG4/ISO/AVC
Продолжительность : 57 м.
Битрейт : 6300 Кбит/сек
Ширина : 1280 пикселей
Высота : 720 пикселей
Соотношение сторон : 16:9
Режим частоты кадров : Постоянный
Частота кадров : 23,976 кадра/сек
Цветовое пространство : YUV
Субдискретизация насыщенности : 4:2:0
Битовая глубина : 8 бит
Тип развёртки : Прогрессивная
Бит/(Пиксели*Кадры) : 0.285
Размер потока : 2,46 Гбайт (85%)
Библиотека кодирования : x264 core 116 r2057 0ba8a9c
Настройки программы : cabac=1 / ref=9 / deblock=1:-3:-3 / analyse=0x3:0x133 / me=umh / subme=10 / psy=1 / psy_rd=1.10:0.10 / mixed_ref=1 / me_range=32 / chroma_me=1 / trellis=2 / 8x8dct=1 / cqm=0 / deadzone=21,11 / fast_pskip=0 / chroma_qp_offset=-3 / threads=14 / sliced_threads=0 / nr=0 / decimate=0 / interlaced=0 / bluray_compat=0 / constrained_intra=0 / bframes=7 / b_pyramid=2 / b_adapt=2 / b_bias=0 / direct=3 / weightb=1 / open_gop=0 / weightp=2 / keyint=250 / keyint_min=23 / scenecut=40 / intra_refresh=0 / rc_lookahead=40 / rc=2pass / mbtree=0 / bitrate=6300 / ratetol=1.0 / qcomp=0.65 / qpmin=0 / qpmax=40 / qpstep=4 / cplxblur=20.0 / qblur=0.5 / vbv_maxrate=50000 / vbv_bufsize=50000 / nal_hrd=none / ip_ratio=1.25 / pb_ratio=1.25 / aq=1:0.65
Язык : English
Default : Да
Forced : Нет
Аудио #1
Идентификатор : 2
Формат : AC-3
Формат/Информация : Audio Coding 3
Расширение режима : CM (complete main)
Параметр Endianness формата : Big
Идентификатор кодека : A_AC3
Продолжительность : 57 м.
Вид битрейта : Постоянный
Битрейт : 192 Кбит/сек
Каналы : 2 канала
Расположение каналов : Front: L R
Частота : 48,0 КГц
Битовая глубина : 16 бит
Метод сжатия : С потерями
Размер потока : 78,4 Мбайт (3%)
Заголовок : Первый канал
Язык : Russian
Default : Да
Forced : Нет
Аудио #2
Идентификатор : 3
Формат : AC-3
Формат/Информация : Audio Coding 3
Расширение режима : CM (complete main)
Параметр Endianness формата : Big
Идентификатор кодека : A_AC3
Продолжительность : 57 м.
Вид битрейта : Постоянный
Битрейт : 384 Кбит/сек
Каналы : 6 каналов
Расположение каналов : Front: L C R, Side: L R, LFE
Частота : 48,0 КГц
Битовая глубина : 16 бит
Метод сжатия : С потерями
Размер потока : 157 Мбайт (5%)
Заголовок : Сербин
Язык : Russian
Default : Нет
Forced : Нет
Аудио #3
Идентификатор : 4
Формат : AC-3
Формат/Информация : Audio Coding 3
Расширение режима : CM (complete main)
Параметр Endianness формата : Big
Идентификатор кодека : A_AC3
Продолжительность : 57 м.
Вид битрейта : Постоянный
Битрейт : 384 Кбит/сек
Каналы : 6 каналов
Расположение каналов : Front: L C R, Side: L R, LFE
Частота : 48,0 КГц
Битовая глубина : 16 бит
Метод сжатия : С потерями
Размер потока : 157 Мбайт (5%)
Язык : English
Default : Нет
Forced : Нет
Текст #1
Идентификатор : 5
Формат : UTF-8
Идентификатор кодека : S_TEXT/UTF8
Идентификатор кодека/Информация : UTF-8 Plain Text
Язык : Russian
Default : Нет
Forced : Нет
Текст #2
Идентификатор : 6
Формат : UTF-8
Идентификатор кодека : S_TEXT/UTF8
Идентификатор кодека/Информация : UTF-8 Plain Text
Язык : English
Default : Нет
Forced : Нет
Меню
00:00:00.000 : en:00:00:00.000
00:01:39.099 : en:00:01:39.099
00:08:44.941 : en:00:08:44.941
00:20:07.164 : en:00:20:07.164
00:27:40.993 : en:00:27:40.993
00:37:10.895 : en:00:37:10.895
00:46:58.482 : en:00:46:58.482
00:55:50.347 : en:00:55:50.347

Тех. данные (MI) 3 сезон:

Общее
Уникальный идентификатор : 199479997069455834183378768381815329451 (0x96127330FCB4A473A2A1BA16FEFC92AB)
Полное имя : D:\Podpolnaya.imperiya.(1-5.sezon).2010-2014.x264.BDRip.720p_MediaClub\Podpolnaya.imperiya.(3.sezon).2012.x264.BDRip.720p_MediaClub\Podpolnaya.imperiya.(Prestupnaja.imperija).(3.sezon.12.seriya.iz.12).2012.x264.BDRip.720p_MediaClub.mkv
Формат : Matroska
Версия формата : Version 4 / Version 2
Размер файла : 2,92 Гбайт
Продолжительность : 59 м.
Общий поток : 6988 Кбит/сек
Название фильма : ReJIiZ MediaClub by BenderBEST
Дата кодирования : UTC 2014-07-11 11:45:40
Программа кодирования : mkvmerge v6.9.1 ('Blue Panther') 64bit built on Apr 18 2014 18:23:38
Библиотека кодирования : libebml v1.3.0 + libmatroska v1.4.1
Видео
Идентификатор : 1
Формат : AVC
Формат/Информация : Advanced Video Codec
Профиль формата : High@L4.1
Параметр CABAC формата : Да
Параметр ReFrames формата : 9 кадров
Идентификатор кодека : V_MPEG4/ISO/AVC
Продолжительность : 59 м.
Битрейт : 5697 Кбит/сек
Ширина : 1280 пикселей
Высота : 720 пикселей
Соотношение сторон : 16:9
Режим частоты кадров : Постоянный
Частота кадров : 23,976 кадра/сек
Цветовое пространство : YUV
Субдискретизация насыщенности : 4:2:0
Битовая глубина : 8 бит
Тип развёртки : Прогрессивная
Бит/(Пиксели*Кадры) : 0.258
Размер потока : 2,38 Гбайт (82%)
Библиотека кодирования : x264 core 135 r2345kMod f0c1c53
Настройки программы : cabac=1 / ref=9 / deblock=1:-3:-3 / analyse=0x3:0x113 / me=umh / subme=11 / psy=1 / fade_compensate=0.00 / psy_rd=1.15:0.05 / mixed_ref=1 / me_range=32 / chroma_me=1 / trellis=2 / 8x8dct=1 / cqm=0 / deadzone=21,11 / fast_pskip=0 / chroma_qp_offset=-4 / threads=6 / lookahead_threads=1 / sliced_threads=0 / nr=0 / decimate=1 / interlaced=0 / bluray_compat=0 / constrained_intra=0 / bframes=9 / b_pyramid=2 / b_adapt=2 / b_bias=0 / direct=1 / weightb=1 / open_gop=0 / weightp=2 / keyint=240 / keyint_min=24 / scenecut=40 / intra_refresh=0 / rc_lookahead=40 / rc=crf / mbtree=0 / crf=17.0000 / qcomp=0.65 / qpmin=0 / qpmax=69 / qpstep=4 / vbv_maxrate=50000 / vbv_bufsize=62500 / crf_max=0.0 / nal_hrd=none / ip_ratio=1.40 / pb_ratio=1.30 / aq=3:0.85
Язык : English
Default : Да
Forced : Нет
Аудио #1
Идентификатор : 2
Формат : AC-3
Формат/Информация : Audio Coding 3
Расширение режима : CM (complete main)
Параметр Endianness формата : Big
Идентификатор кодека : A_AC3
Продолжительность : 59 м.
Вид битрейта : Постоянный
Битрейт : 384 Кбит/сек
Каналы : 6 каналов
Расположение каналов : Front: L C R, Side: L R, LFE
Частота : 48,0 КГц
Битовая глубина : 16 бит
Метод сжатия : С потерями
Размер потока : 164 Мбайт (5%)
Заголовок : LostFilm
Язык : Russian
Default : Да
Forced : Нет
Аудио #2
Идентификатор : 3
Формат : AC-3
Формат/Информация : Audio Coding 3
Расширение режима : CM (complete main)
Параметр Endianness формата : Big
Идентификатор кодека : A_AC3
Продолжительность : 59 м.
Вид битрейта : Постоянный
Битрейт : 384 Кбит/сек
Каналы : 6 каналов
Расположение каналов : Front: L C R, Side: L R, LFE
Частота : 48,0 КГц
Битовая глубина : 16 бит
Метод сжатия : С потерями
Размер потока : 164 Мбайт (5%)
Заголовок : Сербин
Язык : Russian
Default : Нет
Forced : Нет
Аудио #3
Идентификатор : 4
Формат : AC-3
Формат/Информация : Audio Coding 3
Расширение режима : CM (complete main)
Параметр Endianness формата : Big
Идентификатор кодека : A_AC3
Продолжительность : 59 м.
Вид битрейта : Постоянный
Битрейт : 384 Кбит/сек
Каналы : 6 каналов
Расположение каналов : Front: L C R, Side: L R, LFE
Частота : 48,0 КГц
Битовая глубина : 16 бит
Метод сжатия : С потерями
Размер потока : 164 Мбайт (5%)
Язык : English
Default : Нет
Forced : Нет
Текст #1
Идентификатор : 5
Формат : UTF-8
Идентификатор кодека : S_TEXT/UTF8
Идентификатор кодека/Информация : UTF-8 Plain Text
Язык : Russian
Default : Да
Forced : Нет
Текст #2
Идентификатор : 6
Формат : UTF-8
Идентификатор кодека : S_TEXT/UTF8
Идентификатор кодека/Информация : UTF-8 Plain Text
Язык : English
Default : Нет
Forced : Нет
Меню
00:00:00.000 : en:00:00:00.000
00:01:38.098 : en:00:01:38.098
00:08:48.987 : en:00:08:48.987
00:17:10.821 : en:00:17:10.821
00:25:49.757 : en:00:25:49.757
00:32:18.436 : en:00:32:18.436
00:48:25.361 : en:00:48:25.361
00:58:32.092 : en:00:58:32.092

Тех. данные (MI) 4 сезон:

Общее
Уникальный идентификатор : 189999230993679795532799392500089732357 (0x8EF08555A5C4411CBB11BFE1F9A5BD05)
Полное имя : D:\Podpolnaya.imperiya.(1-5.sezon).2010-2014.x264.BDRip.720p_MediaClub\Podpolnaya.imperiya.(4.sezon).2013.x264.BDRip.720p_MediaClub\Podpolnaya.imperiya.(Prestupnaja.imperija).(4.sezon.12.seriya.iz.12).2013.x264.BDRip.720p_MediaC.mkv
Формат : Matroska
Версия формата : Version 4 / Version 2
Размер файла : 1,79 Гбайт
Продолжительность : 56 м.
Общий поток : 4575 Кбит/сек
Название фильма : ReJIiZ MediaClub by BenderBEST
Дата кодирования : UTC 2014-09-02 17:03:56
Программа кодирования : mkvmerge v6.9.1 ('Blue Panther') 64bit built on Apr 18 2014 18:23:38
Библиотека кодирования : libebml v1.3.0 + libmatroska v1.4.1
Видео
Идентификатор : 1
Формат : AVC
Формат/Информация : Advanced Video Codec
Профиль формата : High@L4.1
Параметр CABAC формата : Да
Параметр ReFrames формата : 9 кадров
Идентификатор кодека : V_MPEG4/ISO/AVC
Продолжительность : 56 м.
Битрейт : 3332 Кбит/сек
Ширина : 1280 пикселей
Высота : 720 пикселей
Соотношение сторон : 16:9
Режим частоты кадров : Постоянный
Частота кадров : 23,976 кадра/сек
Цветовое пространство : YUV
Субдискретизация насыщенности : 4:2:0
Битовая глубина : 8 бит
Тип развёртки : Прогрессивная
Бит/(Пиксели*Кадры) : 0.151
Размер потока : 1,30 Гбайт (73%)
Библиотека кодирования : x264 core 133 r2334 a3ac64b
Настройки программы : cabac=1 / ref=9 / deblock=1:-3:-3 / analyse=0x3:0x133 / me=tesa / subme=10 / psy=1 / psy_rd=1.00:0.00 / mixed_ref=1 / me_range=24 / chroma_me=1 / trellis=2 / 8x8dct=1 / cqm=0 / deadzone=21,11 / fast_pskip=0 / chroma_qp_offset=-2 / threads=12 / lookahead_threads=2 / sliced_threads=0 / nr=0 / decimate=0 / interlaced=0 / bluray_compat=0 / constrained_intra=0 / bframes=8 / b_pyramid=2 / b_adapt=2 / b_bias=0 / direct=3 / weightb=1 / open_gop=0 / weightp=2 / keyint=250 / keyint_min=23 / scenecut=40 / intra_refresh=0 / rc_lookahead=60 / rc=crf / mbtree=0 / crf=17.0 / qcomp=0.65 / qpmin=0 / qpmax=69 / qpstep=4 / vbv_maxrate=50000 / vbv_bufsize=62500 / crf_max=0.0 / nal_hrd=none / ip_ratio=1.30 / pb_ratio=1.20 / aq=1:0.65
Язык : English
Default : Да
Forced : Нет
Аудио #1
Идентификатор : 2
Формат : AC-3
Формат/Информация : Audio Coding 3
Расширение режима : CM (complete main)
Параметр Endianness формата : Big
Идентификатор кодека : A_AC3
Продолжительность : 56 м.
Вид битрейта : Постоянный
Битрейт : 384 Кбит/сек
Каналы : 6 каналов
Расположение каналов : Front: L C R, Side: L R, LFE
Частота : 48,0 КГц
Битовая глубина : 16 бит
Метод сжатия : С потерями
Размер потока : 154 Мбайт (8%)
Заголовок : АРК ТВ
Язык : Russian
Default : Да
Forced : Нет
Аудио #2
Идентификатор : 3
Формат : AC-3
Формат/Информация : Audio Coding 3
Расширение режима : CM (complete main)
Параметр Endianness формата : Big
Идентификатор кодека : A_AC3
Продолжительность : 56 м.
Вид битрейта : Постоянный
Битрейт : 384 Кбит/сек
Каналы : 6 каналов
Расположение каналов : Front: L C R, Side: L R, LFE
Частота : 48,0 КГц
Битовая глубина : 16 бит
Метод сжатия : С потерями
Размер потока : 154 Мбайт (8%)
Заголовок : Сербин
Язык : Russian
Default : Нет
Forced : Нет
Аудио #3
Идентификатор : 4
Формат : AC-3
Формат/Информация : Audio Coding 3
Расширение режима : CM (complete main)
Параметр Endianness формата : Big
Идентификатор кодека : A_AC3
Продолжительность : 56 м.
Вид битрейта : Постоянный
Битрейт : 384 Кбит/сек
Каналы : 6 каналов
Расположение каналов : Front: L C R, Side: L R, LFE
Частота : 48,0 КГц
Битовая глубина : 16 бит
Метод сжатия : С потерями
Размер потока : 154 Мбайт (8%)
Язык : English
Default : Нет
Forced : Нет
Текст #1
Идентификатор : 5
Формат : UTF-8
Идентификатор кодека : S_TEXT/UTF8
Идентификатор кодека/Информация : UTF-8 Plain Text
Язык : Russian
Default : Нет
Forced : Нет
Текст #2
Идентификатор : 6
Формат : UTF-8
Идентификатор кодека : S_TEXT/UTF8
Идентификатор кодека/Информация : UTF-8 Plain Text
Язык : English
Default : Нет
Forced : Нет

_________________
[Торрент-статистика]
[Профиль]  [ЛС] 
Показать сообщения:    
Ответить на тему

Текущее время: Сегодня 01:43

Часовой пояс: GMT + 4



Вы не можете начинать темы
Вы не можете отвечать на сообщения
Вы не можете редактировать свои сообщения
Вы не можете удалять свои сообщения
Вы не можете голосовать в опросах
Вы не можете прикреплять файлы к сообщениям
Вы не можете скачивать файлы