Лариса Кучина - Хулиганская душа - 2005, (Шансон), FLAC (image+.cue) lossless

Ответить на тему
 
Автор
Сообщение

Admiral ®

Пол:

Стаж: 6 лет 1 месяц

Сообщений: 596

Репутация: 140 [+] [-]

Пост 03-Сен-2014 11:21

[Цитировать] 

--Лариса Кучина - Хулиганская душа-- Жанр: Шансон
Страна-производитель диска: Россия
Год издания диска: 2005
Издатель (лейбл): Artur Music
Номер по каталогу: CD 265
Аудио кодек: FLAC (*.flac)
Тип рипа: image+.cue
Битрейт аудио: lossless
Продолжительность: 00:49:41
Наличие сканов в содержимом раздачи: да
Треклист:

01. Не уходи (4:36)
02. Хулиганская душа (4:17)
03. Фальшивая любовь (3:50)
04. Лимита (3:47)
05. Печатники (3:16)
06. Сыночек (5:27)
07. Жулик (4:28)
08. Девочка уркаганная (3:46)
09. Беспризорник (3:29)
10. Курск (4:58)
11. Рыжий (4:20)
12. А я красивая (3:27)

EAC

-Exact Audio Copy V1.0 beta 1 from 15. November 2010
Отчёт EAC об извлечении, выполненном 12. февраля 2011, 15:39
Лариса Кучина / Хулиганская душа
Дисковод: _NEC DVD_RW ND-3500AG Adapter: 3 ID: 0
Режим чтения : Достоверность
Использование точного потока : Да
Отключение кэша аудио : Да
Использование указателей C2 : Нет
Коррекция смещения при чтении : 48
Способность читать области Lead-in и Lead-out : Нет
Заполнение пропущенных сэмплов тишиной : Да
Удаление блоков с тишиной в начале и конце : Нет
При вычислениях CRC использовались нулевые сэмплы : Да
Интерфейс : Установленный внешний ASPI-интерфейс
Выходной формат : Внутренние WAV-операции
Формат сэмплов : 44.100 Гц; 16 бит; стерео
TOC извлечённого CD
Трек | Старт | Длительность | Начальный сектор | Конечный сектор
---------------------------------------------------------------------
1 | 0:00.00 | 4:35.51 | 0 | 20675
2 | 4:35.51 | 4:16.57 | 20676 | 39932
3 | 8:52.33 | 3:49.44 | 39933 | 57151
4 | 12:42.02 | 3:47.34 | 57152 | 74210
5 | 16:29.36 | 3:16.03 | 74211 | 88913
6 | 19:45.39 | 5:27.08 | 88914 | 113446
7 | 25:12.47 | 4:28.24 | 113447 | 133570
8 | 29:40.71 | 3:46.12 | 133571 | 150532
9 | 33:27.08 | 3:29.08 | 150533 | 166215
10 | 36:56.16 | 4:58.02 | 166216 | 188567
11 | 41:54.18 | 4:20.19 | 188568 | 208086
12 | 46:14.37 | 3:26.71 | 208087 | 223607
Характеристики диапазона извлечения и сообщения об ошибках
Выбранный диапазон
Имя файла C:\Documents and Settings\Admin\Рабочий стол\Диски от Юры\Л.Кучина - Хулиганская душа\Лариса Кучина - Хулиганская душа.wav
Пиковый уровень 98.8 %
0.3 X
Качество диапазона 99.9 %
CRC теста 069ED4D3
CRC копии 069ED4D3
Копирование... OK
Ошибок не произошло
AccurateRip: сводка
Трек 1 нет в базе данных
Трек 2 нет в базе данных
Трек 3 нет в базе данных
Трек 4 нет в базе данных
Трек 5 нет в базе данных
Трек 6 нет в базе данных
Трек 7 нет в базе данных
Трек 8 нет в базе данных
Трек 9 нет в базе данных
Трек 10 нет в базе данных
Трек 11 нет в базе данных
Трек 12 нет в базе данных
Ни одного трека нет в базе AccurateRip
Конец отчёта
==== 0C1FC278BA96AEA1BEA7FB2247D31D2F159256A94D2F681336140AE7666D9F97 ====
[Торрент-статистика]
[Профиль]  [ЛС] 
Показать сообщения:    
Ответить на тему

Текущее время: Сегодня 23:19

Часовой пояс: GMT + 4



Вы не можете начинать темы
Вы не можете отвечать на сообщения
Вы не можете редактировать свои сообщения
Вы не можете удалять свои сообщения
Вы не можете голосовать в опросах
Вы не можете прикреплять файлы к сообщениям
Вы не можете скачивать файлы