Вечность / Forever / Сезон:1 / Серия 1-10 из 22 (Брэд Андерсон, Мэтью Миллер) [2014 г., драма, фантастика, детектив, WEB-DL 720p] (AlexFilm) (обновляемая)

Ответить на тему
 
Автор
Сообщение

awk05 ®

Пол:

Стаж: 6 лет 2 месяца

Сообщений: 1351

Репутация: 275 [+] [-]

Откуда: Западная Украина Ривне

Пост 03-Сен-2014 03:20

[Цитировать] 

--Вечность / Forever-- Год выпуска: 2014
Страна: США
Жанр: драма, фантастика, детектив
Сезон/Серия: Сезон:1 / Серия 1-10 из 22
Продолжительность: 22 х ~ 00:43:00 мин
Озвучание: профессиональное многоголосое закадровое
Озвучка / Автор перевода: (AlexFilm)
Субтитры: нет--Режиссёры: Брэд Андерсон, Мэтью Миллер--В ролях: Йоан Гриффит, Алана Де Ла Гарза, Лоррейн Туссен, Донни Кешаварц, Джоэль Мур, Джадд Хёрш, Джудит Лайтфут Кларк, Джулиан Гэмбл, Корнелиус Смит мл., Бенжамин Тис...--Описание: Рассказ о молодом привлекательном мужчине, который не стареет и не умирает. На протяжении всей долгой жизни на существование он зарабатывает себе судебной медициной. На протяжении своей работы он вскрывает трупы и делает заключения о причинах смерти. Вы можете задуматься с какой целью он избрал для себя такой не особо приятный вид деятельности? Впрочем ответ скрывается где-то глубоко: он туда устроился ради того, чтобы вразумить отчего все люди на планете умирают, а он нет. Конечно, каждый может посчитать, что такое очень круто, живешь наслаждаешься жизнью и не думаешь о неизбежной смерти, однако поверьте, нашему герою трудно, ему уже целых 200 лет и его жизнь вовсе не подарок. Он не имеет возможности ни с одной душой поделиться собственной тайной и в вопросах, которые у него появляются, он просто уже запутался. Мужчина жаждет отыскать ответы на все тайны, однако как только он что-либо определяет для себя, то и дело встревает в некие передряги, которые полны опасности и безвыходности.--Качество видео: WEB-DL 720p
Формат видео: MKV
Видео кодек: AVC (High@L3.1)
Аудио кодек: AC-3
Видео: AVC, 1280x718 (16:9), 23.976 fps, 3 995 Kbps (0.181 bit/pixel))
Аудио 1: AC-3, 48.0 KHz, 6 ch, 384 Kbps, CBR, 16 bits [Русский]
Аудио 2: AC-3, 48.0 KHz, 6 ch, 384 Kbps, CBR, 16 bits [Английский] -- --

Список серий

01. Пилот
02. Не зная броду, не прыгай в воду
03. Источник молодости
04. Искусство убивать
05. Боксерский перелом
06. Самое противное в маньяках
07. Дети Нью-Йорка
08. Экстаз агонии
09. Шесть утра
10. Человек в костюме убийцы

Кадры из фильма

Тех. данные (MI)

Код:
Общее
Уникальный идентификатор                 : 205187698237448055723982141298154988998 (0x9A5DB695F2EE14688F2380403790E5C6)
Полное имя                               : E:\Сериалы новые\Forever - Season 1 (AlexFilm) WEB-DL 720p\Forever.s01e01.WEB-DL.720p.Rus.Eng.AlexFilm.mkv
Формат                                   : Matroska
Версия формата                           : Version 4 / Version 2
Размер файла                             : 1,47 Гбайт
Продолжительность                        : 43 м.
Общий поток                              : 4859 Кбит/сек
Название фильма                          : Forever 1x01 Pilot @ AlexFilm
Дата кодирования                         : UTC 2014-09-18 19:53:38
Программа кодирования                    : mkvmerge v6.6.0 ('The Edge Of The In Between') built on Dec  1 2013 17:55:00
Библиотека кодирования                   : libebml v1.3.0 + libmatroska v1.4.1
Видео
Идентификатор                            : 1
Формат                                   : AVC
Формат/Информация                        : Advanced Video Codec
Профиль формата                          : High@L3.1
Параметр CABAC формата                   : Нет
Параметр ReFrames формата                : 2 кадра
Идентификатор кодека                     : V_MPEG4/ISO/AVC
Продолжительность                        : 43 м.
Битрейт                                  : 3995 Кбит/сек
Ширина                                   : 1280 пикселей
Высота                                   : 718 пикселей
Соотношение сторон                       : 16:9
Режим частоты кадров                     : Постоянный
Частота кадров                           : 23,976 кадра/сек
Цветовое пространство                    : YUV
Субдискретизация насыщенности            : 4:2:0
Битовая глубина                          : 8 бит
Тип развёртки                            : Прогрессивная
Бит/(Пиксели*Кадры)                      : 0.181
Размер потока                            : 1,21 Гбайт (82%)
Язык                                     : English
Default                                  : Да
Forced                                   : Нет
Основные цвета                           : BT.709
Характеристики трансфера                 : BT.709
Коэффициенты матрицы                     : BT.709
Аудио #1
Идентификатор                            : 2
Формат                                   : AC-3
Формат/Информация                        : Audio Coding 3
Расширение режима                        : CM (complete main)
Параметр Endianness формата              : Big
Идентификатор кодека                     : A_AC3
Продолжительность                        : 43 м.
Вид битрейта                             : Постоянный
Битрейт                                  : 384 Кбит/сек
Каналы                                   : 6 каналов
Расположение каналов                     : Front: L C R, Side: L R, LFE
Частота                                  : 48,0 КГц
Битовая глубина                          : 16 бит
Метод сжатия                             : С потерями
Размер потока                            : 119 Мбайт (8%)
Заголовок                                : DD5.1 AlexFilm
Язык                                     : Russian
Default                                  : Да
Forced                                   : Нет
Аудио #2
Идентификатор                            : 3
Формат                                   : AC-3
Формат/Информация                        : Audio Coding 3
Расширение режима                        : CM (complete main)
Параметр Endianness формата              : Big
Идентификатор кодека                     : A_AC3
Продолжительность                        : 43 м.
Вид битрейта                             : Постоянный
Битрейт                                  : 384 Кбит/сек
Каналы                                   : 6 каналов
Расположение каналов                     : Front: L C R, Side: L R, LFE
Частота                                  : 48,0 КГц
Битовая глубина                          : 16 бит
Метод сжатия                             : С потерями
Размер потока                            : 119 Мбайт (8%)
Заголовок                                : DD5.1 Original
Язык                                     : English
Default                                  : Нет
Forced                                   : Нет

Раздача ведется путем добавления новых серий

Когда раздача ведётся путём добавления новых серий, при каждом добавлении создётся новый торрент. Чтобы начать докачку новой серии, пользователям необходимо сделать следующее:
(1) остановить скачивание,
(2) удалить старый торрент у себя из клиента (старые серии удалять не надо),
(3) скачать новый торрент и запустить его у себя в клиенте вместо старого, при этом указать клиенту путь в старую папку, куда и должно происходить скачивание новых серий.
Ваш клиент при этом должен произвести хеширование (проверку) старой папки (если не производит сам - помогите ему сделать это), и будет докачивать только те серии, которых у вас ещё нет. Старые серии при этом не удаляются, а продолжают раздаваться!
Eсли вы уже удалили старые серии, то предотвратить повторную закачку старых серий можно, отжав галочку в соответсвующих местах при запуске нового торрента. По возможности, желательно не удалять старые серии как можно дольше, чтобы релизёр не столько продолжал раздавать старые серии, а смог сконцентрироваться на новых.

_________________
[Торрент-статистика]
[Профиль]  [ЛС] 
Показать сообщения:    
Ответить на тему

Текущее время: Сегодня 02:47

Часовой пояс: GMT + 4



Вы не можете начинать темы
Вы не можете отвечать на сообщения
Вы не можете редактировать свои сообщения
Вы не можете удалять свои сообщения
Вы не можете голосовать в опросах
Вы не можете прикреплять файлы к сообщениям
Вы не можете скачивать файлы