От A до Я / A to Z / Сезон 1 / Серии 1-6 (13)(Майкл Патрик Джэнн, Стив Пинк) [2014, комедия, WEBRip 720p] MVO (AlexFilm)

Ответить на тему
 
Автор
Сообщение

awk05 ®

Пол:

Стаж: 6 лет 4 месяца

Сообщений: 1348

Репутация: 275 [+] [-]

Откуда: Западная Украина Ривне

Пост 31-Авг-2014 03:30

[Цитировать] 

--От A до Я / A to Z-- Год выпуска: 2014
Страна: США
Жанр: комедия
Сезон/Серия: Сезон:1 /Серия 1-6 из 13
Продолжительность: 13 x ~00:26:00
Озвучание: профессиональное многоголосое закадровое
Озвучка / Автор перевода: (AlexFilm)
Субтитры: нет--Режиссёр: Майкл Патрик Джэнн, Стив Пинк--В ролях: Бен Фельдман, Кристин Милиоти, Генри Жебровский, Ленора Кричлоу, Кристина Кирк, Хонг Чау, Кэти Сагал, Парвеш Шина, Хантер Пэйтон...--Описание: Любовь еще совершенно не изучена учеными. Тем более, по ней нет справочников, да таких, чтобы от А до Я. А вот в фильме «от А до Я» сделана попытка систематизировать все проявления любви. Главный герой фильма – Эндрю. Он работает на сайте знакомств и помогает людям сводить свои судьбы воедино. Однако сапожник сам без сапог: Эндрю мечтает о встрече с девушкой, которая стала бы любовью всей его жизни. И такая ему попадается: Зельда, серьезный адвокат, которой не везет на личном фронте. Мамаша у неё та еще штучка – самая настоящая хиппи и общественный бунтарь. Зельда знакомится с Эндрю, пытаясь разобраться с ошибкой при подборе пары не сайте. После этого между людьми вспыхивают чувства. Данный фильм является хроникой их отношений от А до Z.--Качество видео: WEBRip 720p
Формат видео: MKV
Видео кодек: AVC (High@L4.1)
Аудио кодек: AC-3
Видео: AVC, 1280x720 (16:9), 23.976 fps, 3 702 Kbps (0.168 bit/pixel)
Аудио 1: AC-3, 48.0 KHz, 2 ch, 192 Kbps, CBR, 16 bits [Русский]
Аудио 2: AC-3, 48.0 KHz, 2 ch, 192 Kbps, CBR, 16 bits [Английский] -- --

Кадры из фильма



Тех. данные (MI)

Код:
Общее
Уникальный идентификатор                 : 225653197047427016442621585406884242948 (0xA9C339949F1FBC41A715158EAE8EE604)
Полное имя                               : E:\Сериалы новые\A to Z - Season 1 (AlexFilm) 720p\A.to.Z.s01e01.WEBRip.720p.Rus.Eng.AlexFilm.mkv
Формат                                   : Matroska
Версия формата                           : Version 4 / Version 2
Размер файла                             : 779 Мбайт
Продолжительность                        : 26 м.
Общий поток                              : 4169 Кбит/сек
Название фильма                          : A to Z 1x01 "A" is for Acquaintances @ AlexFilm
Дата кодирования                         : UTC 2014-08-24 18:52:37
Программа кодирования                    : mkvmerge v6.6.0 ('The Edge Of The In Between') built on Dec  1 2013 17:55:00
Библиотека кодирования                   : libebml v1.3.0 + libmatroska v1.4.1
Видео
Идентификатор                            : 1
Формат                                   : AVC
Формат/Информация                        : Advanced Video Codec
Профиль формата                          : High@L4.1
Параметр CABAC формата                   : Да
Параметр ReFrames формата                : 9 кадров
Идентификатор кодека                     : V_MPEG4/ISO/AVC
Продолжительность                        : 26 м.
Битрейт                                  : 3702 Кбит/сек
Ширина                                   : 1280 пикселей
Высота                                   : 720 пикселей
Соотношение сторон                       : 16:9
Режим частоты кадров                     : Постоянный
Частота кадров                           : 23,976 кадра/сек
Цветовое пространство                    : YUV
Субдискретизация насыщенности            : 4:2:0
Битовая глубина                          : 8 бит
Тип развёртки                            : Прогрессивная
Бит/(Пиксели*Кадры)                      : 0.168
Размер потока                            : 692 Мбайт (89%)
Библиотека кодирования                   : x264 core 142 r2453 ea0ca51
Настройки программы                      : cabac=1 / ref=9 / deblock=1:-3:-3 / analyse=0x3:0x113 / me=umh / subme=11 / psy=1 / psy_rd=1.00:0.00 / mixed_ref=1 / me_range=32 / chroma_me=1 / trellis=2 / 8x8dct=1 / cqm=0 / deadzone=21,11 / fast_pskip=0 / chroma_qp_offset=-2 / threads=12 / lookahead_threads=2 / sliced_threads=0 / nr=0 / decimate=0 / interlaced=0 / bluray_compat=0 / constrained_intra=0 / bframes=9 / b_pyramid=2 / b_adapt=2 / b_bias=0 / direct=3 / weightb=1 / open_gop=0 / weightp=2 / keyint=230 / keyint_min=23 / scenecut=40 / intra_refresh=0 / rc_lookahead=40 / rc=crf / mbtree=0 / crf=16.0 / qcomp=0.70 / qpmin=0 / qpmax=69 / qpstep=4 / vbv_maxrate=50000 / vbv_bufsize=62500 / crf_max=0.0 / nal_hrd=none / filler=0 / ip_ratio=1.40 / pb_ratio=1.30 / aq=2:0.80
Default                                  : Да
Forced                                   : Нет
Аудио #1
Идентификатор                            : 2
Формат                                   : AC-3
Формат/Информация                        : Audio Coding 3
Расширение режима                        : CM (complete main)
Параметр Endianness формата              : Big
Идентификатор кодека                     : A_AC3
Продолжительность                        : 26 м.
Вид битрейта                             : Постоянный
Битрейт                                  : 192 Кбит/сек
Каналы                                   : 2 канала
Расположение каналов                     : Front: L R
Частота                                  : 48,0 КГц
Битовая глубина                          : 16 бит
Метод сжатия                             : С потерями
Размер потока                            : 35,9 Мбайт (5%)
Заголовок                                : DD2.0 AlexFilm
Язык                                     : Russian
Default                                  : Да
Forced                                   : Нет
Аудио #2
Идентификатор                            : 3
Формат                                   : AC-3
Формат/Информация                        : Audio Coding 3
Расширение режима                        : CM (complete main)
Параметр Endianness формата              : Big
Идентификатор кодека                     : A_AC3
Продолжительность                        : 26 м.
Вид битрейта                             : Постоянный
Битрейт                                  : 192 Кбит/сек
Каналы                                   : 2 канала
Расположение каналов                     : Front: L R
Частота                                  : 48,0 КГц
Битовая глубина                          : 16 бит
Метод сжатия                             : С потерями
Размер потока                            : 35,9 Мбайт (5%)
Заголовок                                : DD2.0 Original
Язык                                     : English
Default                                  : Нет
Forced                                   : Нет

_________________
[Торрент-статистика]
[Профиль]  [ЛС] 
Показать сообщения:    
Ответить на тему

Текущее время: Сегодня 23:15

Часовой пояс: GMT + 4



Вы не можете начинать темы
Вы не можете отвечать на сообщения
Вы не можете редактировать свои сообщения
Вы не можете удалять свои сообщения
Вы не можете голосовать в опросах
Вы не можете прикреплять файлы к сообщениям
Вы не можете скачивать файлы