Доктор Кто / Doctor Who / Сезон:8 / Серия 1-10 из 12 (Грэм Харпер, Эрос Лин, Джеймс Стронг)[2014 г., Фантастика, Комедия, Приключения, WEB-DL 720p]MVO Baibako

Ответить на тему
 
Автор
Сообщение

awk05 ®

Пол:

Стаж: 6 лет 4 месяца

Сообщений: 1348

Репутация: 275 [+] [-]

Откуда: Западная Украина Ривне

Пост 24-Авг-2014 21:09

[Цитировать] 

--Доктор Кто / Doctor Who «Trust Your Doctor»-- Год выпуска: 2014
Страна: Великобритания
Жанр: Фантастика, Комедия, Приключения
Сезон/Серия: Сезон:8 /Серия 1-10 из 12
Продолжительность: 12 х 01:16:00
Перевод: Профессиональный (многоголосый, закадровый) + Original
Озвучка / Автор перевода: Baibako
Субтитры: English--Режиссёр: Грэм Харпер, Эрос Лин, Джеймс Стронг--В ролях: Двенадцатый Доктор - Питер Капальди, Клара Освальд - Дженна Коулман, Дэнни Пинк - Сэмюэль Андерсен, Вастра - Нив МакИнтош, Дженни Флинт - Кэтрин Стюарт, Стракс - Дэн Старки, Кейт Стюарт - Джемма Редгрейв, Осгуд - Ингрид Оливер--Описание: Доктор Кто (Doctor Who) — британский научно-фантастический телесериал компании Би-Би-Си о загадочном путешественнике во времени, известном как «Доктор», который вместе со своими спутниками исследует время и пространство, борясь со вселенским злом.
У него на вооружении - машина времени TARDIS - Time And Relative Dimension In Space. Снаружи это всего лишь британская полицейская будка 1950-х, а внутри гораздо более просторный пространственно-временной корабль.
В новом сезоне... Доктор, Эми и Рори возвращаются, чтобы столкнуться с монстрами, загадками и приключениями во всём времени и пространстве. Они окажутся в Америке 60х годов и сразятся со вторжением в забытый мир. Затем они попадут на борт пиратского корабля и раскроют тайну Сирен. В пузырьковой вселенной на самом краю света, Доктор повстречает старого друга с новым лицом, а в монастыре на далёком острове в недалёком будущем производственная авария примет ужасную человеческую форму. В конце их поджидает битва у Бега Демонов и самый тяжёлый час для Доктора. Поможет ли правда о Ривер Сонг спасти душу Повелителя Времени? Можно быть уверенным лишь в двух вещах. Тишина наступит. И умрёт хороший человек...
Что ждет героев на их пути? Смотрите в новом сезоне!--Качество видео: WEB-DL 720p
Формат видео: MKV
Видео кодек: AVC (High@L3.1)
Аудио кодек: AC-3
Видео: AVC, 1280@960x720 (16:9), 25.000 fps, 3 905 Kbps (0.226 bit/pixel)
Аудио 1: AC-3, 48.0 KHz, 6 ch, 384 Kbps, CBR, 16 bits [Русский]
Аудио 2: AC-3, 48.0 KHz, 6 ch, 384 Kbps, CBR, 16 bits [Английский] -- --

Список серий

01. Глубокий вдох
02. Внутрь Далека
03. Робот из Шервуда
04. Слушай
05. Кража времени
06. Смотритель
07. Убить Луну
08. Мумия в восточном экспрессе
09. Остановка сердца 18 октября
10. В лесу ночном 25 октября
11. Тёмные воды 1 ноября
12. Смерть в раю 8 ноября

Знаете ли Вы, что...

* Ив Майлс снималась в Докторе Кто в роли Гвинет и в Торчвуде как Гвен. В конце 4го сезона пояснили, что Гвинет — предок Гвен.
* По версии «Книги рекордов Гиннеса» «Доктор Кто» самый продолжительный научно-фантастический сериал.
* Джорджия Моффетт (дочь актера, сыгравшего пятого Доктора, и жена актера, сыгравшего десятого Доктора), сыгравшая в сериале дочь десятого Доктора, пробовалась на роль Роуз Тайлер.
* Дэвид Теннант, исполнявший роль Десятого Доктора с 2005-го года, объявил об уходе в октябре 2008-го. Актёра, который будет исполнять роль Одиннадцатого Доктора, подбирали несколько месяцев. 27-летний Мэтт Смит стал самым молодым актёром, который играл Доктора. До него самым молодым был актёр Питер Дэвисон, сыгравший в 29-летнем возрасте Пятого Доктора.
* Изначально Освин не должна была иметь никакого отношения к Кларе Освальд, она просто была одноразовым персонажем. Однако во время прослушивания Дженны Коулман на роль спутницы, Стивен Моффат решил сделать Освин одной из копий Клары и взял актрису сразу на две роли.
* В 2011 году Моффат объявил, что хочет «дать далекам передохнуть», потому что, по его мнению, «их слишком частые появления сделали их самыми легко побеждаемыми врагами». Раньше далеки пугали, но со временем стали своеобразными символами Британии и считались «забавными». Своей целью в «Изоляторе далеков» Моффат ставил снова сделать их страшными, и для этого он решил «представить их еще более безумными, чем обычно». Карен Гиллан призналась, что до начала работы над этой серией совершенно не боялась далеков.
* Серии «Ангелы захватывают Манхэттен», «Снеговики» и «Изолятор Далеков» были номинированы на премью Хьюго в номинации «лучшая постановка» (малая форма).
* Торчвуд (Torchwood) на английском языке является анаграммой Доктору Кто (Doctor Who). В начале съемок в 2005 году BBC были обеспокоены конфиденциальностью и дали проекту кодовое название «Торчвуд». Позже данное название было использовано в спинн-оффе сериала.
* Бенедикту Камбербэтчу предлагали роль Доктора после ухода Дэвида Теннанта, но он отказался ссылаясь на ответственность, которая придет вместе с ролью.
* Карен Гиллан, сыгравшая Эми Понд — спутницу 11 доктора, появилась в сериале еще в четвертом сезоне в эпизоде «Огни помпей», где сыграла одну из жриц.
* Перед тем как Фрима Аджьеман появилась в сериале в образе спутницы 10 Доктора, она сыграла во 2м сезоне в серии «Армия призраков» в роли одной из сотрудниц Торчвуда.
* Питер Капальди, исполнитель роли двенадцатого воплощения Доктора, ранее сыграл в фильме «Война миров Z» (2013) медицинского сотрудника, указанного в титрах как «W.H.O. Doctor».
* В честь 50-летнего юбилея сериала, Королевская почта Великобритании выпустила в 2013-м году серию марок, посвященных «Доктору Кто».
* В серии «Далеки на Манхэттане» члены культа Скаро сказали, что родная планета далеков Скаро была уничтожена. Наличие этой планеты в серии «Изолятор далеков» противоречит их словам.

Кадры из фильма



Тех. данные (MI)

Код:
Общее
Уникальный идентификатор                 : 243687509306747722870419742782721691684 (0xB75481D2ECA536BBA41DD1685D411024)
Полное имя                               : G:\тест\Doctor.Who.s08.720p.WEB-DL.Rus.Eng.BaibaKo\Doctor.Who.s08e01.Deep.Breath.HD720p.WEB-DL.Rus.Eng.BaibaKo.tv.mkv
Формат                                   : Matroska
Версия формата                           : Version 4 / Version 2
Размер файла                             : 2,56 Гбайт
Продолжительность                        : 1 ч. 16 м.
Общий поток                              : 4768 Кбит/сек
Дата кодирования                         : UTC 2014-08-24 12:20:33
Программа кодирования                    : mkvmerge v6.7.0 ('Back to the Ground') 64bit built on Jan  8 2014 15:10:52
Библиотека кодирования                   : libebml v1.3.0 + libmatroska v1.4.1
Видео
Идентификатор                            : 1
Формат                                   : AVC
Формат/Информация                        : Advanced Video Codec
Профиль формата                          : Main@L3.1
Параметр CABAC формата                   : Нет
Параметр ReFrames формата                : 2 кадра
Идентификатор кодека                     : V_MPEG4/ISO/AVC
Продолжительность                        : 1 ч. 16 м.
Битрейт                                  : 3905 Кбит/сек
Ширина                                   : 960 пикселей
Высота                                   : 720 пикселей
Соотношение сторон                       : 16:9
Режим частоты кадров                     : Постоянный
Частота кадров                           : 25,000 кадров/сек
Цветовое пространство                    : YUV
Субдискретизация насыщенности            : 4:2:0
Битовая глубина                          : 8 бит
Тип развёртки                            : Прогрессивная
Бит/(Пиксели*Кадры)                      : 0.226
Размер потока                            : 2,10 Гбайт (82%)
Язык                                     : English
Default                                  : Да
Forced                                   : Нет
Основные цвета                           : BT.709
Характеристики трансфера                 : BT.709
Коэффициенты матрицы                     : BT.709
Аудио #1
Идентификатор                            : 2
Формат                                   : AC-3
Формат/Информация                        : Audio Coding 3
Расширение режима                        : CM (complete main)
Параметр Endianness формата              : Big
Идентификатор кодека                     : A_AC3
Продолжительность                        : 1 ч. 16 м.
Вид битрейта                             : Постоянный
Битрейт                                  : 384 Кбит/сек
Каналы                                   : 6 каналов
Расположение каналов                     : Front: L C R, Side: L R, LFE
Частота                                  : 48,0 КГц
Битовая глубина                          : 16 бит
Метод сжатия                             : С потерями
Размер потока                            : 211 Мбайт (8%)
Язык                                     : Russian
Default                                  : Да
Forced                                   : Нет
Аудио #2
Идентификатор                            : 3
Формат                                   : AC-3
Формат/Информация                        : Audio Coding 3
Расширение режима                        : CM (complete main)
Параметр Endianness формата              : Big
Идентификатор кодека                     : A_AC3
Продолжительность                        : 1 ч. 16 м.
Вид битрейта                             : Постоянный
Битрейт                                  : 384 Кбит/сек
Каналы                                   : 6 каналов
Расположение каналов                     : Front: L C R, Side: L R, LFE
Частота                                  : 48,0 КГц
Битовая глубина                          : 16 бит
Метод сжатия                             : С потерями
Размер потока                            : 211 Мбайт (8%)
Язык                                     : English
Default                                  : Нет
Forced                                   : Нет

_________________
[Торрент-статистика]
[Профиль]  [ЛС] 
Показать сообщения:    
Ответить на тему

Текущее время: Сегодня 23:31

Часовой пояс: GMT + 4



Вы не можете начинать темы
Вы не можете отвечать на сообщения
Вы не можете редактировать свои сообщения
Вы не можете удалять свои сообщения
Вы не можете голосовать в опросах
Вы не можете прикреплять файлы к сообщениям
Вы не можете скачивать файлы