Супружеский долг / Satisfaction (US) / Сезон:1 / Серия 1-6 из 10 (Кевин Брэй, Дженнифер Гетцингер, Майк Листо ) [2014 г., драма, WEB-DL 720p] BaibaKo (Обновляемая)

Ответить на тему
 
Автор
Сообщение

awk05 ®

Пол:

Стаж: 6 лет 5 месяцев

Сообщений: 1347

Репутация: 275 [+] [-]

Откуда: Западная Украина Ривне

Пост 19-Авг-2014 03:07

[Цитировать] 

--Супружеский долг / Satisfaction (US) -- Год выпуска 2014
Страна: США
Жанр: драма
Сезон/Серия: Сезон:1 /Серия 1-6 из 10
Продолжительность: 10 х 01:05:00 серия
Перевод: Профессиональный (многоголосый, закадровый)+ Original
Озвучка / Автор перевода: - BaibaKo
Релиз-группа: BaibaKo.tv
Субтитры: отсутствуют--Режиссёр: Кевин Брэй, Дженнифер Гетцингер, Листо --
В ролях: Мэтт Пассмор, Стефани Зостак, Майкл ДеШон, Джин ВерДель Александр, Чейз Андерсон, Авис-Мари Барнс, Майкл Бисли, Эйприл Биллингсли, Брэдли Бауэн--Описание: Инвестиционный банкир Нил Труман обнаруживает, что его собственная жена пользуется услугами мужского эскорт-сервиса. Это неприятное открытие наводит главного героя на одну интересную идею...
«Супружеский долг» (Satisfaction) – это провокационный драматический сериал, который исследует современный брак людей, переживающих кризис среднего возраста. Через призму одной пары, Нила Трумэна, и его жены Грейс, этот сериал отвечает на вопрос: «Что вы будете делать, когда всего того, что вы имеете, будет недостаточно?», исследуя самые шокирующие и нетрадиционные варианты ответа на него.--Качество видео: WEB-DL 720p
Формат видео: MKV
Видео кодек: AVC (High@L3.1)
Аудио кодек: AC-3
Видео: AVC, 1280x720 (16:9), 23.976 fps, 3 921 Kbps (0.177 bit/pixel)
Аудио 1: AC-3, 48.0 KHz, 6 ch, 384 Kbps, CBR, 16 bits [Русский]
Аудио 2: AC-3, 48.0 KHz, 6 ch, 384 Kbps, CBR, 16 bits [Английский] -- --

Список серий

01. Пилот
02. Удовольствие от вхождения
03. Удовольствие От соперничества
04. Удовольствие от самопознания
05. Удовольствие от партнёрства
06. Удовольствие от выставления на показ

Кадры из фильма

Тех. данные (MI)

Код:
Общее
Уникальный идентификатор                 : 209451350300470150461006536764172347006 (0x9D92DCDCC3C1AD1B892C1532D94D267E)
Полное имя                               : E:\Сериалы новые\Satisfaction.US\Satisfaction.US.s01e01.HD720p.WEB-DL.Rus-Eng.BaibaKo.tv.mkv
Формат                                   : Matroska
Версия формата                           : Version 4 / Version 2
Размер файла                             : 2,20 Гбайт
Продолжительность                        : 1 ч. 5 м.
Общий поток                              : 4784 Кбит/сек
Дата кодирования                         : UTC 2014-08-18 01:10:07
Программа кодирования                    : mkvmerge v6.7.0 ('Back to the Ground') 64bit built on Jan  8 2014 15:10:52
Библиотека кодирования                   : libebml v1.3.0 + libmatroska v1.4.1
Видео
Идентификатор                            : 1
Формат                                   : AVC
Формат/Информация                        : Advanced Video Codec
Профиль формата                          : High@L3.1
Параметр CABAC формата                   : Нет
Параметр ReFrames формата                : 2 кадра
Идентификатор кодека                     : V_MPEG4/ISO/AVC
Продолжительность                        : 1 ч. 5 м.
Битрейт                                  : 3921 Кбит/сек
Ширина                                   : 1280 пикселей
Высота                                   : 720 пикселей
Соотношение сторон                       : 16:9
Режим частоты кадров                     : Постоянный
Частота кадров                           : 23,976 кадра/сек
Цветовое пространство                    : YUV
Субдискретизация насыщенности            : 4:2:0
Битовая глубина                          : 8 бит
Тип развёртки                            : Прогрессивная
Бит/(Пиксели*Кадры)                      : 0.177
Размер потока                            : 1,81 Гбайт (82%)
Язык                                     : English
Default                                  : Да
Forced                                   : Нет
Основные цвета                           : BT.709
Характеристики трансфера                 : BT.709
Коэффициенты матрицы                     : BT.709
Аудио #1
Идентификатор                            : 2
Формат                                   : AC-3
Формат/Информация                        : Audio Coding 3
Расширение режима                        : CM (complete main)
Параметр Endianness формата              : Big
Идентификатор кодека                     : A_AC3
Продолжительность                        : 1 ч. 5 м.
Вид битрейта                             : Постоянный
Битрейт                                  : 384 Кбит/сек
Каналы                                   : 6 каналов
Расположение каналов                     : Front: L C R, Side: L R, LFE
Частота                                  : 48,0 КГц
Битовая глубина                          : 16 бит
Метод сжатия                             : С потерями
Размер потока                            : 181 Мбайт (8%)
Язык                                     : Russian
Default                                  : Да
Forced                                   : Нет
Аудио #2
Идентификатор                            : 3
Формат                                   : AC-3
Формат/Информация                        : Audio Coding 3
Расширение режима                        : CM (complete main)
Параметр Endianness формата              : Big
Идентификатор кодека                     : A_AC3
Продолжительность                        : 1 ч. 5 м.
Вид битрейта                             : Постоянный
Битрейт                                  : 384 Кбит/сек
Каналы                                   : 6 каналов
Расположение каналов                     : Front: L C R, Side: L R, LFE
Частота                                  : 48,0 КГц
Битовая глубина                          : 16 бит
Метод сжатия                             : С потерями
Размер потока                            : 181 Мбайт (8%)
Язык                                     : English
Default                                  : Нет
Forced                                   : Нет

Раздача ведется путем добавления новых серий

Когда раздача ведётся путём добавления новых серий, при каждом добавлении создётся новый торрент. Чтобы начать докачку новой серии, пользователям необходимо сделать следующее:
(1) остановить скачивание,
(2) удалить старый торрент у себя из клиента (старые серии удалять не надо),
(3) скачать новый торрент и запустить его у себя в клиенте вместо старого, при этом указать клиенту путь в старую папку, куда и должно происходить скачивание новых серий.
Ваш клиент при этом должен произвести хеширование (проверку) старой папки (если не производит сам - помогите ему сделать это), и будет докачивать только те серии, которых у вас ещё нет. Старые серии при этом не удаляются, а продолжают раздаваться!
Eсли вы уже удалили старые серии, то предотвратить повторную закачку старых серий можно, отжав галочку в соответсвующих местах при запуске нового торрента. По возможности, желательно не удалять старые серии как можно дольше, чтобы релизёр не столько продолжал раздавать старые серии, а смог сконцентрироваться на новых.

_________________
[Торрент-статистика]
[Профиль]  [ЛС] 
Показать сообщения:    
Ответить на тему

Текущее время: Сегодня 04:39

Часовой пояс: GMT + 4



Вы не можете начинать темы
Вы не можете отвечать на сообщения
Вы не можете редактировать свои сообщения
Вы не можете удалять свои сообщения
Вы не можете голосовать в опросах
Вы не можете прикреплять файлы к сообщениям
Вы не можете скачивать файлы