Активы / Агенты / The Assets Сезон:1 / Серия 1-8 из 8 (Тригве Аллистер Дайсен, Питер Медак, Джеф Т. Томас) [2014 г., Шпионский сериал, триллер, WEB-DL 720p] DVO HamsterStudio

Ответить на тему
 
Автор
Сообщение

awk05 ®

Пол:

Стаж: 6 лет 2 месяца

Сообщений: 1351

Репутация: 275 [+] [-]

Откуда: Западная Украина Ривне

Пост 17-Авг-2014 18:04

[Цитировать] 

-- Активы / Агенты / The Assets -- Год выпуска 2014
Страна: США
Жанр: Шпионский сериал, триллер
Сезон/Серия: Сезон:1 /Серия 1-8 из 8
Продолжительность: 8 х ~ 00:42:00
Перевод: любительский (двухголосый, закадровый) + Original
Озвучка / Автор перевода: HamsterStudio
Субтитры: Russian--Режиссёр: Тригве Аллистер Дайсен, Питер Медак, Джеф Т. Томас --
В ролях: Джоди Уиттакер, Пол Рис, Харриет Уолтер, Стюарт Миллиган, Кристина Коул, Лекс Шрэпнел, Джулиан Овенден, Ральф Браун, Каталина Денис, Горан Костич--Описание: «Активы» (англ. The Assets) — американский мини-сериал, основанный на книге «Отчет об Олдриче Эймсе и людях, которых он предал», написанной бывшими агентами ЦРУ Сандрой Граймс и Джинн Вертфей. В центре сюжета находятся агенты Сандра Граймс и Джинн Вертфей, которые ведут поиски крота в самый разгар холодной войны. Сериал выйдет на ABC в сезоне 2013—2014 годов. Премьера сериала ограниченной перспективы трансляции из восьми эпизодов, состоялась 2 января 2014 года, в качестве недорогой межсезонной замены в период хиатуса сериала «Скандал».--Качество видео: WEB-DL 720p
Формат видео: MKV
Видео кодек: AVC (High@L3.1)
Аудио кодек: AC-3
Видео: AVC, 1280x720 (16:9), 23.976 fps, 4 018 Kbps (0.182 bit/pixel)
Аудио 1: AC-3, 48.0 KHz, 6 ch, 448 Kbps, CBR, 16 bits [Русский]
Аудио 2: AC-3, 48.0 KHz, 6 ch, 384 Kbps, CBR, 16 bits [Английский] -- --

Список серий

01. My Name is Aldrich Ames
02. Jewel in the Crown
03. Trip to Vienna
04. What’s Done is Done
05. Check Mate
06. A Small Useless Truth
07. The Straw Poll
08. Avenger

Кадры из фильма

Тех. данные (MI)

Код:
General
Unique ID                                : 194009656126526330775075271822415705306 (0x91F4E68F41E64F0A8F931A3C94AB34DA)
Complete name                            : E:\тест\The.Assets\The.Assets.s01e04.720p.WEB-DL.HamsterStudio.Org.mkv
Format                                   : Matroska
Format version                           : Version 2
File size                                : 1.47 GiB
Duration                                 : 42mn 31s
Overall bit rate                         : 4 949 Kbps
Encoded date                             : UTC 2014-08-14 09:54:17
Writing application                      : mkvmerge v5.4.0 ('Piper') built on Apr  4 2012 15:35:24
Writing library                          : libebml v1.2.3 + libmatroska v1.3.0
Video
ID                                       : 1
Format                                   : AVC
Format/Info                              : Advanced Video Codec
Format profile                           : High@L3.1
Format settings, CABAC                   : No
Format settings, ReFrames                : 2 frames
Codec ID                                 : V_MPEG4/ISO/AVC
Duration                                 : 42mn 31s
Bit rate                                 : 4 018 Kbps
Width                                    : 1 280 pixels
Height                                   : 720 pixels
Display aspect ratio                     : 16:9
Frame rate mode                          : Constant
Frame rate                               : 23.976 fps
Color space                              : YUV
Chroma subsampling                       : 4:2:0
Bit depth                                : 8 bits
Scan type                                : Progressive
Bits/(Pixel*Frame)                       : 0.182
Stream size                              : 1.19 GiB (81%)
Language                                 : English
Default                                  : Yes
Forced                                   : No
Color primaries                          : BT.709
Transfer characteristics                 : BT.709
Matrix coefficients                      : BT.709
Audio #1
ID                                       : 2
Format                                   : AC-3
Format/Info                              : Audio Coding 3
Mode extension                           : CM (complete main)
Format settings, Endianness              : Big
Codec ID                                 : A_AC3
Duration                                 : 42mn 31s
Bit rate mode                            : Constant
Bit rate                                 : 448 Kbps
Channel(s)                               : 6 channels
Channel positions                        : Front: L C R, Side: L R, LFE
Sampling rate                            : 48.0 KHz
Bit depth                                : 16 bits
Compression mode                         : Lossy
Stream size                              : 136 MiB (9%)
Title                                    : HamsterStudio.Org
Language                                 : Russian
Default                                  : Yes
Forced                                   : Yes
Audio #2
ID                                       : 3
Format                                   : AC-3
Format/Info                              : Audio Coding 3
Mode extension                           : CM (complete main)
Format settings, Endianness              : Big
Codec ID                                 : A_AC3
Duration                                 : 42mn 31s
Bit rate mode                            : Constant
Bit rate                                 : 384 Kbps
Channel(s)                               : 6 channels
Channel positions                        : Front: L C R, Side: L R, LFE
Sampling rate                            : 48.0 KHz
Bit depth                                : 16 bits
Compression mode                         : Lossy
Stream size                              : 117 MiB (8%)
Language                                 : English
Default                                  : No
Forced                                   : No
Text
ID                                       : 4
Format                                   : ASS
Codec ID                                 : S_TEXT/ASS
Codec ID/Info                            : Advanced Sub Station Alpha
Compression mode                         : Lossless
Language                                 : Russian
Default                                  : Yes
Forced                                   : Yes

_________________
[Торрент-статистика]
[Профиль]  [ЛС] 
Показать сообщения:    
Ответить на тему

Текущее время: Сегодня 02:52

Часовой пояс: GMT + 4



Вы не можете начинать темы
Вы не можете отвечать на сообщения
Вы не можете редактировать свои сообщения
Вы не можете удалять свои сообщения
Вы не можете голосовать в опросах
Вы не можете прикреплять файлы к сообщениям
Вы не можете скачивать файлы