Риццоли и Айлс / Rizzoli & Isles / Сезон: 4 / Серии: 1-16 (16) (Марк Абер / Mark Haber, Майкл Кэтлман / Michael Katleman, Майкл Цинберг / Michael Zinberg) [2013, США, драма, криминал, детектив, WEB-DL 1080p] MVO (SET)

Ответить на тему
 
Автор
Сообщение

awk05 ®

Пол:

Стаж: 6 лет 2 месяца

Сообщений: 1351

Репутация: 275 [+] [-]

Откуда: Западная Украина Ривне

Пост 13-Авг-2014 04:43

[Цитировать] 

Риццоли и Айлс / Rizzoli & Isles«Маленькие девочки - сахар и специя... и все недостаток»- Год выпуска: 2012
Страна: США, TNT
Жанр: драма, криминал, детектив
Сезон/Серия: Сезон:3 /Серия 1-16 из 16
Продолжительность: 16 х ~00:42:00
Перевод: Профессиональный (многоголосый, закадровый)
Озвучка / Автор перевода: Sony Entertainment Television "SET"
Субтитры: English--Режиссеры: Марк Абер / Mark Haber, Майкл Кэтлман / Michael Katleman, Майкл Цинберг / Michael Zinberg--В ролях: Энджи Хармон (Detective Rizzoli), Саша Александр (Dr. Maura Isles), Джордан Бриджес (Frankie Rizzoli Jr.), Ли Томпсон Янг (Detective Barry Frost), Брюс МакГилл (Detective Vince Korsak), Лоррейн Бракко (Angela Rizzoli), Брайан Гудман (Lieutenant Sean Cavanaugh), Тина Хуанг (Susie Chang), Колин Эглсфилд (Tommy Rizzoli), Крис Вэнс (Lt. Col. Charles «Casey» Jones), Дэррил Алан Рид (Rondo), Рик Чэмберс (Tom Martin)--Описание: Риццоли и Айлс (англ. Rizzoli&Isles) — американский детективный телесериал, основанный на серии книг Тесс Герритсен. Главные героини — детектив бостонского отдела убийств Джейн Риццоли и патологоанатом Мора Айлс. Премьера состоялась 12 июля 2010 на канале TNT.
Каждая серия представляет собой расследование одного убийства или серии убийств, произошедших в Бостоне. Им занимается Джейн Риццоли, её напарник Барри Фрост и её бывший напарник Винс Корсак. В отличие от прочих детективных сериалов, здесь большое внимание уделяется внерабочей жизни героев, в частности — дружбе между Риццоли и Айлс.--Качество видео: WEB-DL 1080p
Формат видео: MKV
Видео кодек: AVC (High@L4.0)
Аудио кодек: AC-3
Видео: AVC, 1920x1080 (16:9), 23.976 fps, 5 034 Kbps (0.101 bit/pixel)
Аудио 1: AC-3, 48.0 KHz, 2 ch, 192 Kbps, CBR, 16 бит [Русский]
Аудио 2: AC-3, 48.0 KHz, 6 ch, 384 Kbps, CBR, 16 бит [Английский] -- --

Кадры из фильма

Тех. данные (MI)

Код:
General
Unique ID                                : 216545697220763189197974596125939468228 (0xA2E92F2BB3595B7D99B01E80F52C07C4)
Complete name                            : G:\Сериалы\Rizzoli.Isles.S04.WEB-DL.1080p.SET\Rizzoli.Isles.S04E01.WEB-DL.1080p.SET.mkv
Format                                   : Matroska
Format version                           : Version 2
File size                                : 1.69 GiB
Duration                                 : 42mn 16s
Overall bit rate                         : 5 724 Kbps
Movie name                               : Rizzoli & Isles S04E01 'We Are Family' by SPS
Encoded date                             : UTC 2014-05-14 17:01:27
Writing application                      : mkvmerge v6.6.0 ('The Edge Of The In Between') built on Dec  1 2013 17:55:00
Writing library                          : libebml v1.3.0 + libmatroska v1.4.1
Video
ID                                       : 1
Format                                   : AVC
Format/Info                              : Advanced Video Codec
Format profile                           : High@L4.0
Format settings, CABAC                   : Yes
Format settings, ReFrames                : 4 frames
Codec ID                                 : V_MPEG4/ISO/AVC
Duration                                 : 42mn 16s
Bit rate                                 : 5 034 Kbps
Width                                    : 1 920 pixels
Height                                   : 1 080 pixels
Display aspect ratio                     : 16:9
Frame rate mode                          : Constant
Frame rate                               : 23.976 fps
Color space                              : YUV
Chroma subsampling                       : 4:2:0
Bit depth                                : 8 bits
Scan type                                : Progressive
Bits/(Pixel*Frame)                       : 0.101
Stream size                              : 1.49 GiB (88%)
Language                                 : English
Default                                  : Yes
Forced                                   : No
Color primaries                          : BT.709
Transfer characteristics                 : BT.709
Matrix coefficients                      : BT.709
Audio #1
ID                                       : 2
Format                                   : AC-3
Format/Info                              : Audio Coding 3
Mode extension                           : CM (complete main)
Format settings, Endianness              : Big
Codec ID                                 : A_AC3
Duration                                 : 42mn 16s
Bit rate mode                            : Constant
Bit rate                                 : 192 Kbps
Channel(s)                               : 2 channels
Channel positions                        : Front: L R
Sampling rate                            : 48.0 KHz
Bit depth                                : 16 bits
Compression mode                         : Lossy
Stream size                              : 58.1 MiB (3%)
Title                                    : SET
Language                                 : Russian
Default                                  : Yes
Forced                                   : No
Audio #2
ID                                       : 3
Format                                   : AC-3
Format/Info                              : Audio Coding 3
Mode extension                           : CM (complete main)
Format settings, Endianness              : Big
Codec ID                                 : A_AC3
Duration                                 : 42mn 16s
Bit rate mode                            : Constant
Bit rate                                 : 384 Kbps
Channel(s)                               : 6 channels
Channel positions                        : Front: L C R, Side: L R, LFE
Sampling rate                            : 48.0 KHz
Bit depth                                : 16 bits
Compression mode                         : Lossy
Stream size                              : 116 MiB (7%)
Language                                 : English
Default                                  : No
Forced                                   : No
Text
ID                                       : 4
Format                                   : UTF-8
Codec ID                                 : S_TEXT/UTF8
Codec ID/Info                            : UTF-8 Plain Text
Language                                 : English
Default                                  : No
Forced                                   : No

_________________
[Торрент-статистика]
[Профиль]  [ЛС] 
Показать сообщения:    
Ответить на тему

Текущее время: Сегодня 08:12

Часовой пояс: GMT + 4



Вы не можете начинать темы
Вы не можете отвечать на сообщения
Вы не можете редактировать свои сообщения
Вы не можете удалять свои сообщения
Вы не можете голосовать в опросах
Вы не можете прикреплять файлы к сообщениям
Вы не можете скачивать файлы