Ад на колесах / Hell on Wheels / Сезон:1-3 /Серия 1-30 из 30(Дэвид Фон Энкен/David Von Ancken)[2011-2013 г.,Драма, Вестерн, Сезон 1: HDTVRip 720p, Сезон 2-3: WEB-DLRip 720p ] MVO LostFilm

Ответить на тему
 
Автор
Сообщение

awk05 ®

Пол:

Стаж: 6 лет 2 месяца

Сообщений: 1351

Репутация: 275 [+] [-]

Откуда: Западная Украина Ривне

Пост 05-Авг-2014 20:46

[Цитировать] 

--Ад на колесах / Hell on Wheels-- Год выпуска: 2011-2013
Жанр: Драма, Вестерн
Сезон/Серия: Сезон:1-3 /Серия 1-30 из 30
Продолжительность: 30 х ~00:45:00 серия
Перевод: Многоголосый закадровый, профессиональный
Озвучка / Автор перевода: LostFilm
Субтитры: отсутствуют--Режиссер: Дэвид Фон Энкен/David Von Ancken --
Актеры: Джералд Огер, Джулиан Шамп, Фил Бурк, Коммон, Бен Эслер, Тед Левайн, Доминик МакЭллигот, Колм Мини, Энсон Маунт, Эдди Спирс--Описание фильма: «Ад на колёсах» — американский драматический телесериал в жанре вестерн 2011 года, созданный Джоном Гейтоном и Тони Гейтоном. Действие сериала происходит в 1865 году, в поселении «Ад на колесах», основанном работниками компании, строящей первую трансконтинентальную железную дорогу. Это место населено служащими компании, геодезистами, проститутками, торговцами и другими людьми, сделавшими передвижной лагерь своим домом. Главным героем сериала является Каллен Бохэнон (сыгранный Энсоном Маунтом), бывший солдат Конфедерации, ищущий людей, убивших его жену и маленького сына.--Качество видео: Сезон 1: HDTVRip 720p, Сезон 2-3: WEB-DLRip 720p
Формат видео: MKV
Видео кодек: AVC (High@L3.1)
Аудио кодек: AC-3
Видео: AVC, 1280х720 (16:9), 23.976 fps, 4 041 Kbps (0.183 bit/pixel)
Сезон 1:
Аудио: AC-3, 48.0 KHz, 2 ch, 384 Kbps, CBR, 16 бит [Русский]
Сезон 2-3:
Аудио 1: AC-3, 48.0 KHz, 2 ch, 384 Kbps, CBR, 16 бит [Русский]
Аудио 2: AC-3, 48.0 KHz, 2 ch, 384 Kbps, CBR, 16 бит [Английский] -- --

Список серий

1 сезон
01. Pilot
02. Immoral Mathematics
03. A New Birth of Freedom
04. Jamais je ne t'oublierai
05. Bread and Circuses
06. Pride, Pomp and Circumstance
07. Revelations
08. Derailed
09. Timshel
10. God of Chaos
2 сезон
01. Viva La Mexico
02. Durant, Nebraska
03. Slaughterhouse
04. Scabs
05. The Railroad Job
06. Purged Away With Blood
07. The White Spirit
08. The Lord's Day
09. Blood Moon
10. Blood Moon Rising
3 сезон
01. Big Bad Wolf
02. Eminent Domain
03. Range War
04. The Game
05. Searchers
06. One Less Mule
07. Cholera
08. It Happened In Boston
09. Fathers and Sins
10. Get Behind the Mule

Знаете ли Вы, что...

Первая серия собрала у экранов 4,4 миллиона американцев. Число зрителей последующих серий стало падать, и в итоге финал сезона привлёк лишь 2,8 миллиона зрителей.

Кадры из фильма

Тех. данные (MI) Сезон 1

Код:
Общее
Уникальный идентификатор : 237242024524783019742011998637284369744 (0xB27B26E391C26EC1A27FF9CD71D7A550)
Полное имя : D:\torrent\Зарубежные сериалы\Ад на колесах (Hell on Wheels)\Hell On Wheels\Hell On Wheels 1 - LostFilm.TV [720p]\Hell.on.Wheels.S01E01.HD.rus.LostFilm.TV.mkv
Формат : Matroska
Версия формата : Version 2
Размер файла : 1,40 Гбайт
Продолжительность : 45 м.
Общий поток : 4427 Кбит/сек
Дата кодирования : UTC 2012-01-01 18:15:42
Программа кодирования : mkvmerge v4.5.0 ('Speed of Light') сборка от Feb 1 2011 02:10:32
Библиотека кодирования : libebml v1.2.0 + libmatroska v1.1.0
Видео
Идентификатор : 1
Формат : AVC
Формат/Информация : Advanced Video Codec
Профиль формата : High@L3.1
Параметр CABAC формата : Да
Параметр ReFrames формата : 4 кадра
Идентификатор кодека : V_MPEG4/ISO/AVC
Продолжительность : 45 м.
Битрейт : 4041 Кбит/сек
Ширина : 1280 пикселей
Высота : 720 пикселей
Соотношение сторон : 16:9
Режим частоты кадров : Постоянный
Частота кадров : 23,976 кадра/сек
Цветовое пространство : YUV
Субдискретизация насыщенности : 4:2:0
Битовая глубина : 8 бит
Тип развёртки : Прогрессивная
Бит/(Пиксели*Кадры) : 0.183
Размер потока : 1,25 Гбайт (89%)
Библиотека кодирования : x264 core 112 r1834 a51816a
Настройки программы : cabac=1 / ref=1 / deblock=1:0:0 / analyse=0x3:0x113 / me=hex / subme=7 / psy=1 / psy_rd=1.00:0.00 / mixed_ref=0 / me_range=16 / chroma_me=1 / trellis=1 / 8x8dct=1 / cqm=0 / deadzone=21,11 / fast_pskip=1 / chroma_qp_offset=-2 / threads=6 / sliced_threads=0 / nr=0 / decimate=1 / interlaced=0 / constrained_intra=0 / bframes=3 / b_pyramid=2 / b_adapt=1 / b_bias=0 / direct=1 / weightb=1 / open_gop=0 / weightp=2 / keyint=250 / keyint_min=25 / scenecut=40 / intra_refresh=0 / rc_lookahead=40 / rc=2pass / mbtree=1 / bitrate=4041 / ratetol=1.0 / qcomp=0.60 / qpmin=0 / qpmax=51 / qpstep=4 / cplxblur=20.0 / qblur=0.5 / ip_ratio=1.40 / aq=1:1.00
Default : Да
Forced : Нет
Аудио
Идентификатор : 2
Формат : AC-3
Формат/Информация : Audio Coding 3
Расширение режима : CM (complete main)
Параметр Endianness формата : Big
Идентификатор кодека : A_AC3
Продолжительность : 45 м.
Вид битрейта : Постоянный
Битрейт : 384 Кбит/сек
Каналы : 2 канала
Расположение каналов : Front: L R
Частота : 48,0 КГц
Битовая глубина : 16 бит
Метод сжатия : С потерями
Размер потока : 124 Мбайт (9%)
Язык : Russian
Default : Да
Forced : Да

Тех. данные (MI) Сезон 2

Общее
Уникальный идентификатор : 209159496178993411831230137278202092118 (0x9D5AA757DC7E6BFA89F017B4364B9A56)
Полное имя : D:\torrent\Зарубежные сериалы\Ад на колесах (Hell on Wheels)\Hell On Wheels\Hell On Wheels 2 - LostFilm.TV [720p]\Hell.On.Wheels.S02E01.HD.rus.LostFilm.TV.mkv
Формат : Matroska
Версия формата : Version 2
Размер файла : 1,45 Гбайт
Продолжительность : 43 м.
Общий поток : 4811 Кбит/сек
Дата кодирования : UTC 2012-08-16 17:18:07
Программа кодирования : mkvmerge v4.2.0 ('No Talking') сборка от Jul 28 2010 18:38:23
Библиотека кодирования : libebml v1.0.0 + libmatroska v1.0.0
Видео
Идентификатор : 1
Формат : AVC
Формат/Информация : Advanced Video Codec
Профиль формата : High@L3.1
Параметр CABAC формата : Да
Параметр ReFrames формата : 4 кадра
Идентификатор кодека : V_MPEG4/ISO/AVC
Продолжительность : 43 м.
Битрейт : 4041 Кбит/сек
Ширина : 1280 пикселей
Высота : 720 пикселей
Соотношение сторон : 16:9
Режим частоты кадров : Постоянный
Частота кадров : 23,976 кадра/сек
Цветовое пространство : YUV
Субдискретизация насыщенности : 4:2:0
Битовая глубина : 8 бит
Тип развёртки : Прогрессивная
Бит/(Пиксели*Кадры) : 0.183
Размер потока : 1,19 Гбайт (82%)
Библиотека кодирования : x264 core 112 r1834 a51816a
Настройки программы : cabac=1 / ref=1 / deblock=1:0:0 / analyse=0x3:0x113 / me=hex / subme=7 / psy=1 / psy_rd=1.00:0.00 / mixed_ref=0 / me_range=16 / chroma_me=1 / trellis=1 / 8x8dct=1 / cqm=0 / deadzone=21,11 / fast_pskip=1 / chroma_qp_offset=-2 / threads=6 / sliced_threads=0 / nr=0 / decimate=1 / interlaced=0 / constrained_intra=0 / bframes=3 / b_pyramid=2 / b_adapt=1 / b_bias=0 / direct=1 / weightb=1 / open_gop=0 / weightp=2 / keyint=250 / keyint_min=25 / scenecut=40 / intra_refresh=0 / rc_lookahead=40 / rc=2pass / mbtree=1 / bitrate=4041 / ratetol=1.0 / qcomp=0.60 / qpmin=0 / qpmax=51 / qpstep=4 / cplxblur=20.0 / qblur=0.5 / ip_ratio=1.40 / aq=1:1.00
Default : Да
Forced : Нет
Аудио #1
Идентификатор : 2
Формат : AC-3
Формат/Информация : Audio Coding 3
Расширение режима : CM (complete main)
Параметр Endianness формата : Big
Идентификатор кодека : A_AC3
Продолжительность : 43 м.
Вид битрейта : Постоянный
Битрейт : 384 Кбит/сек
Каналы : 2 канала
Расположение каналов : Front: L R
Частота : 44,1 КГц
Битовая глубина : 16 бит
Метод сжатия : С потерями
Размер потока : 118 Мбайт (8%)
Default : Да
Forced : Нет
Аудио #2
Идентификатор : 3
Формат : AC-3
Формат/Информация : Audio Coding 3
Расширение режима : CM (complete main)
Параметр Endianness формата : Big
Идентификатор кодека : A_AC3
Продолжительность : 43 м.
Вид битрейта : Постоянный
Битрейт : 384 Кбит/сек
Каналы : 2 канала
Расположение каналов : Front: L R
Частота : 48,0 КГц
Битовая глубина : 16 бит
Метод сжатия : С потерями
Размер потока : 118 Мбайт (8%)
Default : Нет
Forced : Нет
Код:

Тех. данные (MI) Сезон 3

Код:
Общее
Уникальный идентификатор : 175608191974476195864362324552991708632 (0x841CE8549038E5EE81039F5833D915D8)
Полное имя : D:\torrent\Зарубежные сериалы\Ад на колесах (Hell on Wheels)\Hell On Wheels\Hell On Wheels 3 - LostFilm.TV [720p]\Hell.On.Wheels.S03E01.720p.rus.LostFilm.TV.mkv
Формат : Matroska
Версия формата : Version 2
Размер файла : 1,45 Гбайт
Продолжительность : 43 м.
Общий поток : 4811 Кбит/сек
Дата кодирования : UTC 2013-08-20 12:16:27
Программа кодирования : mkvmerge v4.2.0 ('No Talking') сборка от Jul 28 2010 18:38:23
Библиотека кодирования : libebml v1.0.0 + libmatroska v1.0.0
Видео
Идентификатор : 1
Формат : AVC
Формат/Информация : Advanced Video Codec
Профиль формата : High@L3.1
Параметр CABAC формата : Да
Параметр ReFrames формата : 4 кадра
Идентификатор кодека : V_MPEG4/ISO/AVC
Продолжительность : 43 м.
Битрейт : 4041 Кбит/сек
Ширина : 1280 пикселей
Высота : 720 пикселей
Соотношение сторон : 16:9
Режим частоты кадров : Постоянный
Частота кадров : 23,976 кадра/сек
Цветовое пространство : YUV
Субдискретизация насыщенности : 4:2:0
Битовая глубина : 8 бит
Тип развёртки : Прогрессивная
Бит/(Пиксели*Кадры) : 0.183
Размер потока : 1,19 Гбайт (82%)
Библиотека кодирования : x264 core 112 r1834 a51816a
Настройки программы : cabac=1 / ref=1 / deblock=1:0:0 / analyse=0x3:0x113 / me=hex / subme=7 / psy=1 / psy_rd=1.00:0.00 / mixed_ref=0 / me_range=16 / chroma_me=1 / trellis=1 / 8x8dct=1 / cqm=0 / deadzone=21,11 / fast_pskip=1 / chroma_qp_offset=-2 / threads=6 / sliced_threads=0 / nr=0 / decimate=1 / interlaced=0 / constrained_intra=0 / bframes=3 / b_pyramid=2 / b_adapt=1 / b_bias=0 / direct=1 / weightb=1 / open_gop=0 / weightp=2 / keyint=250 / keyint_min=25 / scenecut=40 / intra_refresh=0 / rc_lookahead=40 / rc=2pass / mbtree=1 / bitrate=4041 / ratetol=1.0 / qcomp=0.60 / qpmin=0 / qpmax=51 / qpstep=4 / cplxblur=20.0 / qblur=0.5 / ip_ratio=1.40 / aq=1:1.00
Default : Да
Forced : Нет
Аудио #1
Идентификатор : 2
Формат : AC-3
Формат/Информация : Audio Coding 3
Расширение режима : CM (complete main)
Параметр Endianness формата : Big
Идентификатор кодека : A_AC3
Продолжительность : 43 м.
Вид битрейта : Постоянный
Битрейт : 384 Кбит/сек
Каналы : 2 канала
Расположение каналов : Front: L R
Частота : 48,0 КГц
Битовая глубина : 16 бит
Метод сжатия : С потерями
Размер потока : 118 Мбайт (8%)
Default : Да
Forced : Нет
Аудио #2
Идентификатор : 3
Формат : AC-3
Формат/Информация : Audio Coding 3
Расширение режима : CM (complete main)
Параметр Endianness формата : Big
Идентификатор кодека : A_AC3
Продолжительность : 43 м.
Вид битрейта : Постоянный
Битрейт : 384 Кбит/сек
Каналы : 2 канала
Расположение каналов : Front: L R
Частота : 48,0 КГц
Битовая глубина : 16 бит
Метод сжатия : С потерями
Размер потока : 118 Мбайт (8%)
Default : Нет
Forced : Нет

_________________
[Торрент-статистика]
[Профиль]  [ЛС] 
Показать сообщения:    
Ответить на тему

Текущее время: Сегодня 08:12

Часовой пояс: GMT + 4



Вы не можете начинать темы
Вы не можете отвечать на сообщения
Вы не можете редактировать свои сообщения
Вы не можете удалять свои сообщения
Вы не можете голосовать в опросах
Вы не можете прикреплять файлы к сообщениям
Вы не можете скачивать файлы