Лотерея /The Lottery / Сезон:1 / Серия 1-8 из 10 (Дэнни Кэннон / Danny Cannon) [2014 г., Фантастика, драма, HDTV 720p] MVO BaibaKo (Обновляемая)

Ответить на тему
 
Автор
Сообщение

awk05 ®

Пол:

Стаж: 6 лет 2 месяца

Сообщений: 1351

Репутация: 275 [+] [-]

Откуда: Западная Украина Ривне

Пост 01-Авг-2014 17:42

[Цитировать] 

--Лотерея /The Lottery-- Год выпуска2014
Страна: США
Жанр: Фантастика, драма
Сезон/Серия: Сезон:1 /Серия 1-8 из 10
Продолжительность: 10 х ~ 00:41:00
Перевод: Профессиональный (многоголосый, закадровый) BaibaKo.tv + Original
Субтитры: отсутствуют--Режиссёр: Дэнни Кэннон / Danny Cannon --
В ролях: Марли Шелтон ("В последний миг"), Майкл Грациадей ("Американская история ужасов"), Дэвид Алпей ("Дневники Вампиров"), Афена Карканис ("Низкое зимнее солнце"), Юл Васкес ("Город мечты"), Шелли Конн ("Терра Нова"), Мартин Донован ("Родина") и др.--Описание: В антиутопическом будущем случился глобальный кризис рождаемости. Мир оказался под угрозой исчезновения, поскольку женщины таинственно перестали рожать детей - последние шесть младенцев Америки родились шесть лет назад. Спустя годы исследований доктор Элисон Леннон и её команда успешно оплодотворяют сто яйцеклеток. Однако победа оказывается мимолётной: глава государственной комиссии по фертильности Дариус Хейз, берет лабораторию под контроль и сообщает президенту о грандиозном научном прорыве. Чтобы определить, кто из женщин выносит драгоценные эмбрионы, глава администрации Ванесса Келлер предлагает президенту устроить национальную лотерею, и битва за контроль над эмбрионами начинается.
Сценарий "Лотереи" написал Тимоти Дж. Секстон ("Дитя человеческое"), выступивший также исполнительным продюсером вместе с Риком Эйдом ("Заложники") и Мэттом Олмстедом ("Побег"). Режисер и исполнительный продюсер пилотной серии Дэнни Кэннон ("C.S.I. Место преступления"). Сериал создан студиями Grady Girl Production и Warner Horizon Television.--Качество видео: HDTV720p
Формат видео: MKV
Видео кодек: AVC (High@L4.1)
Аудио кодек: AC-3
Видео: AVC, 1280x720 (16:9), 23.976 fps, 4 096 Kbps (0.185 bit/pixel)
Аудио 1: AC-3, 48.0 KHz, 6 ch, 384 Kbps, CBR, 16 бит [RUS]
Аудио 2: AC-3, 48.0 KHz, 6 ch, 384 Kbps, CBR, 16 бит [ENG] -- --

Список серий

01. Пилот
02. Правила игры
03. Во благо
04. Джинн
05. Хрустальный город
06. Без сна
07. Остров Святого Майкла
08. По правде говоря

Кадры из фильма

Тех. данные (MI)

Код:
Общее
Уникальный идентификатор                 : 187101451166264607023781661995681426612 (0x8CC26DC229B726E29E38339DB25FACB4)
Полное имя                               : E:\тест\The.Lottery\The.Lottery.s01e01.HDTV720p.Rus.Eng.BaibaKo.tv.mkv
Формат                                   : Matroska
Версия формата                           : Version 4 / Version 2
Размер файла                             : 1,38 Гбайт
Продолжительность                        : 40 м.
Общий поток                              : 4866 Кбит/сек
Дата кодирования                         : UTC 2014-07-31 20:15:50
Программа кодирования                    : mkvmerge v6.7.0 ('Back to the Ground') 64bit built on Jan  8 2014 15:10:52
Библиотека кодирования                   : libebml v1.3.0 + libmatroska v1.4.1
Видео
Идентификатор                            : 1
Формат                                   : AVC
Формат/Информация                        : Advanced Video Codec
Профиль формата                          : High@L4.1
Параметр CABAC формата                   : Да
Параметр ReFrames формата                : 5 кадров
Идентификатор кодека                     : V_MPEG4/ISO/AVC
Продолжительность                        : 40 м.
Битрейт                                  : 4096 Кбит/сек
Ширина                                   : 1280 пикселей
Высота                                   : 720 пикселей
Соотношение сторон                       : 16:9
Режим частоты кадров                     : Постоянный
Частота кадров                           : 23,976 кадра/сек
Цветовое пространство                    : YUV
Субдискретизация насыщенности            : 4:2:0
Битовая глубина                          : 8 бит
Тип развёртки                            : Прогрессивная
Бит/(Пиксели*Кадры)                      : 0.185
Размер потока                            : 1,14 Гбайт (82%)
Библиотека кодирования                   : x264 core 130 r2273 b3065e6
Настройки программы                      : cabac=1 / ref=5 / deblock=1:-1:-1 / analyse=0x3:0x113 / me=umh / subme=8 / psy=1 / psy_rd=1.00:0.15 / mixed_ref=1 / me_range=16 / chroma_me=1 / trellis=1 / 8x8dct=1 / cqm=0 / deadzone=21,11 / fast_pskip=1 / chroma_qp_offset=-3 / threads=12 / lookahead_threads=2 / sliced_threads=0 / nr=0 / decimate=1 / interlaced=0 / bluray_compat=0 / constrained_intra=0 / bframes=3 / b_pyramid=2 / b_adapt=2 / b_bias=0 / direct=3 / weightb=1 / open_gop=0 / weightp=2 / keyint=240 / keyint_min=24 / scenecut=40 / intra_refresh=0 / rc_lookahead=50 / rc=2pass / mbtree=1 / bitrate=4096 / ratetol=1.0 / qcomp=0.60 / qpmin=0 / qpmax=69 / qpstep=4 / cplxblur=20.0 / qblur=0.5 / vbv_maxrate=62500 / vbv_bufsize=78125 / nal_hrd=none / ip_ratio=1.40 / aq=1:1.00
Язык                                     : English
Default                                  : Да
Forced                                   : Нет
Основные цвета                           : BT.709
Характеристики трансфера                 : BT.709
Коэффициенты матрицы                     : BT.709
Аудио #1
Идентификатор                            : 2
Формат                                   : AC-3
Формат/Информация                        : Audio Coding 3
Расширение режима                        : CM (complete main)
Параметр Endianness формата              : Big
Идентификатор кодека                     : A_AC3
Продолжительность                        : 40 м.
Вид битрейта                             : Постоянный
Битрейт                                  : 384 Кбит/сек
Каналы                                   : 6 каналов
Расположение каналов                     : Front: L C R, Side: L R, LFE
Частота                                  : 48,0 КГц
Битовая глубина                          : 16 бит
Метод сжатия                             : С потерями
Размер потока                            : 112 Мбайт (8%)
Язык                                     : Russian
Default                                  : Да
Forced                                   : Нет
Аудио #2
Идентификатор                            : 3
Формат                                   : AC-3
Формат/Информация                        : Audio Coding 3
Расширение режима                        : CM (complete main)
Параметр Endianness формата              : Big
Идентификатор кодека                     : A_AC3
Продолжительность                        : 40 м.
Вид битрейта                             : Постоянный
Битрейт                                  : 384 Кбит/сек
Каналы                                   : 6 каналов
Расположение каналов                     : Front: L C R, Side: L R, LFE
Частота                                  : 48,0 КГц
Битовая глубина                          : 16 бит
Метод сжатия                             : С потерями
Размер потока                            : 112 Мбайт (8%)
Язык                                     : English
Default                                  : Нет
Forced                                   : Нет

_________________


Последний раз редактировалось: awk05 (2014-09-14 21:07), всего редактировалось 4 раз(а)
[Торрент-статистика]
[Профиль]  [ЛС] 
Показать сообщения:    
Ответить на тему

Текущее время: Сегодня 08:13

Часовой пояс: GMT + 4



Вы не можете начинать темы
Вы не можете отвечать на сообщения
Вы не можете редактировать свои сообщения
Вы не можете удалять свои сообщения
Вы не можете голосовать в опросах
Вы не можете прикреплять файлы к сообщениям
Вы не можете скачивать файлы