Мамона / Богатство/ Mammon / Сезон:1 /Серия 1-6 из 6 (Сесиль А. Мосли / Cecilie A. Mosli) [2014 г., триллер, драма, HDTV 720p] MVO BaibaKo + Original

Ответить на тему
 
Автор
Сообщение

awk05 ®

Пол:

Стаж: 6 лет 5 месяцев

Сообщений: 1347

Репутация: 275 [+] [-]

Откуда: Западная Украина Ривне

Пост 20-Июл-2014 16:45

[Цитировать] 

--Мамона / Богатство/ Mammon -- Год выпуска: 2014
Производство: Норвегия, NRK Drama
Жанр: триллер, драма
Сезон/Серия: Сезон:1 /Серия 1-6 из 6
Продолжительность: 6 х ~00:57:00 серия
Перевод: Профессиональный (многоголосый, закадровый) - BaibaKo + Original
Субтитры: отсутствуют--Режиссер: Сесиль А. Мосли / Cecilie A. Mosli--Актеры: Йон Ёигарден, Терье Стрёмдаль, Ингьерд Эгеберг, Андерс Т. Андерсен, Лена Эллингсен, Анна Бахе-Вииг, Роберт Скйэрстад, Андреас Каппелен--Описание фильма: Журналист газеты раскрывает мошенничество в большой международной компании и обнаруживает, что в это вовлечены его родные. Все это рушит его карьеру и семейные отношения….
Мамона (также маммона) — слово, используемое в Евангелиях в значении «имение, богатство, блага земные». В Новом Завете «мамона» служит олицетворением богатства, от служения которому предостерегаются верующие: «Никто не может служить двум господам: ибо или одного будет ненавидеть, а другого любить; или одному станет усердствовать, а о другом нерадеть. Не можете служить Богу и мамоне.»--Качество: HDTV720p
Формат видео: MKV
Видео кодек: AVC (High@L4.1)
Аудио кодек: AC-3
Видео: AVC, 1280x720 (16:9), 25.000 fps, 2 842 Kbps (0.123 bit/pixel)
Аудио #1: AC-3, 48.0 KHz, 6 ch, 384 Kbps, CBR, 16 бит [RUS]
Аудио #2: AC-3, 48.0 KHz, 2 ch, 448 Kbps, CBR, 16 бит [NOR] -- --

Список серий

1.Жертва
2.Пробуждение
3.Падение
4.Соглашение
5.Убийство
6.Конец света

Скриншоты

Тех. данные (MI)

Код:
General
Complete name : F:\Сериал\раздача\Mammon.s01\Mammon.s01e01.HDTV720p.Rus.Nor.BaibaKo.tv.mkv
Format : Matroska
File size : 1.50 GiB
Duration : 57mn 21s
Overall bit rate : 3 748 Kbps
Encoded date : UTC 2014-07-13 10:34:22
Writing application : mkvmerge v6.7.0 ('Back to the Ground') 64bit built on Jan 8 2014 15:10:52
Writing library : libebml v1.3.0 + libmatroska v1.4.1
Video
ID : 1
Format : AVC
Format/Info : Advanced Video Codec
Format profile : High@L4.1
Format settings, CABAC : Yes
Format settings, ReFrames : 5 frames
Muxing mode : Container profile=Unknown@4.1
Codec ID : V_MPEG4/ISO/AVC
Duration : 57mn 21s
Bit rate : 2 842 Kbps
Width : 1 280 pixels
Height : 720 pixels
Display aspect ratio : 16:9
Frame rate : 25.000 fps
Color space : YUV
Chroma subsampling : 4:2:0
Bit depth : 8 bits
Scan type : Progressive
Bits/(Pixel*Frame) : 0.123
Stream size : 1.14 GiB (76%)
Writing library : x264 core 140 r2377 1ca7bb9
Encoding settings : cabac=1 / ref=5 / deblock=1:0:0 / analyse=0x3:0x113 / me=umh / subme=8 / psy=1 / psy_rd=1.00:0.00 / mixed_ref=1 / me_range=16 / chroma_me=1 / trellis=1 / 8x8dct=1 / cqm=0 / deadzone=21,11 / fast_pskip=1 / chroma_qp_offset=-2 / threads=18 / lookahead_threads=3 / sliced_threads=0 / nr=0 / decimate=1 / interlaced=0 / bluray_compat=0 / constrained_intra=0 / bframes=3 / b_pyramid=2 / b_adapt=2 / b_bias=0 / direct=3 / weightb=1 / open_gop=0 / weightp=2 / keyint=250 / keyint_min=25 / scenecut=40 / intra_refresh=0 / rc_lookahead=50 / rc=crf / mbtree=1 / crf=18.0 / qcomp=0.60 / qpmin=0 / qpmax=69 / qpstep=4 / ip_ratio=1.40 / aq=1:1.00
Language : English
Audio #1
ID : 2
Format : AC-3
Format/Info : Audio Coding 3
Mode extension : CM (complete main)
Codec ID : A_AC3
Duration : 57mn 21s
Bit rate mode : Constant
Bit rate : 384 Kbps
Channel(s) : 6 channels
Channel positions : Front: L C R, Side: L R, LFE
Sampling rate : 48.0 KHz
Bit depth : 16 bits
Stream size : 158 MiB (10%)
Language : Russian
Audio #2
ID : 3
Format : AC-3
Format/Info : Audio Coding 3
Mode extension : CM (complete main)
Codec ID : A_AC3
Duration : 57mn 21s
Bit rate mode : Constant
Bit rate : 448 Kbps
Channel(s) : 2 channels
Channel positions : Front: L R
Sampling rate : 48.0 KHz
Bit depth : 16 bits
Stream size : 184 MiB (12%)
Language : Norwegian Bokmal

Раздача ведется путем добавления новых серий

Когда раздача ведётся путём добавления новых серий, при каждом добавлении создётся новый торрент. Чтобы начать докачку новой серии, пользователям необходимо сделать следующее:
(1) остановить скачивание,
(2) удалить старый торрент у себя из клиента (старые серии удалять не надо),
(3) скачать новый торрент и запустить его у себя в клиенте вместо старого, при этом указать клиенту путь в старую папку, куда и должно происходить скачивание новых серий.
Ваш клиент при этом должен произвести хеширование (проверку) старой папки (если не производит сам - помогите ему сделать это), и будет докачивать только те серии, которых у вас ещё нет. Старые серии при этом не удаляются, а продолжают раздаваться!
Eсли вы уже удалили старые серии, то предотвратить повторную закачку старых серий можно, отжав галочку в соответсвующих местах при запуске нового торрента. По возможности, желательно не удалять старые серии как можно дольше, чтобы релизёр не столько продолжал раздавать старые серии, а смог сконцентрироваться на новых.

_________________
[Торрент-статистика]
[Профиль]  [ЛС] 
Показать сообщения:    
Ответить на тему

Текущее время: Сегодня 09:10

Часовой пояс: GMT + 4



Вы не можете начинать темы
Вы не можете отвечать на сообщения
Вы не можете редактировать свои сообщения
Вы не можете удалять свои сообщения
Вы не можете голосовать в опросах
Вы не можете прикреплять файлы к сообщениям
Вы не можете скачивать файлы