Мы и они / Us & Them / Сезон:1 /Серия 1-7 из 7 (Майкл Патрик Джэнн, Джей Чандрашекхар, Мэттью Сон)[2013 г., комедия, HDTV 1080i]MVO SET + Original

Ответить на тему
 
Автор
Сообщение

awk05 ®

Пол:

Стаж: 6 лет 4 месяца

Сообщений: 1348

Репутация: 275 [+] [-]

Откуда: Западная Украина Ривне

Пост 19-Июл-2014 17:24

[Цитировать] 

--Мы и они / Us & Them-- Год выпуска 2013
Страна: США
Жанр: комедия
Сезон/Серия: Сезон:1 /Серия 1-7 из 7
Продолжительность: 7 х 00:20:00
Перевод: Профессиональный (многоголосый закадровый) SET + Original
Субтитры: отсутствуют--Режиссёр: Майкл Патрик Джэнн, Джей Чандрашекхар, Мэттью Сон--В ролях: Джейсон Риттер, Алексис Бледел, Дастин Ибарра, Эшли Эткинсон, Джейн Качмарек, Курт Фуллер, Керри , Майкл Йен Блэк, Майкл Коул, Брайан Джеймс Пепе--Описание: Пара возлюбленных (несмешной Джейсон Риттер и Алексис Бледел) отчаянно сопротивляется ежеминутному вмешательству в их личную жизнь родни и друзей, которые — это естественно — хотят только помочь. Вторая попытка перенести в американский прайм-тайм британский комедийный хит «Гэвин и Стейси» увенчалась успехом.--Качество видео: HDTV 1080i
Формат видео: MPEG-TS
Видео кодек: AVC (High@L4.0)
Аудио кодек: AC-3
Видео: AVC, 1920x1080 (16:9), 25.000 fps, 6 382 Kbps (0.123 bit/pixel)
Аудио 1: AC-3, 48.0 KHz, 6 ch, 384 Kbps, CBR, 16 бит [RUS]
Аудио 2: AC-3, 48.0 KHz, 6 ch, 384 Kbps, CBR, 16 бит [ENG] -- --

Скриншоты

Тех. данные (MI)

Общее
Идентификатор : 1 (0x1)
Полное имя : E:\тест\SET HD_Мы и они 1\SET HD_Мы и они 1x01.ts
Формат : MPEG-TS
Размер файла : 1,09 Гбайт
Продолжительность : 20 м.
Режим общего битрейта : Переменный
Общий поток : 7530 Кбит/сек
Видео
Идентификатор : 4113 (0x1011)
Идентификатор меню : 1 (0x1)
Формат : AVC
Формат/Информация : Advanced Video Codec
Профиль формата : High@L4.0
Параметр CABAC формата : Да
Параметр ReFrames формата : 3 кадра
Идентификатор кодека : 27
Продолжительность : 20 м.
Вид битрейта : Переменный
Битрейт : 6382 Кбит/сек
Максимальный битрейт : 40,0 Мбит/сек
Ширина : 1920 пикселей
Высота : 1080 пикселей
Соотношение сторон : 16:9
Частота кадров : 25,000 кадров/сек
Цветовое пространство : YUV
Субдискретизация насыщенности : 4:2:0
Битовая глубина : 8 бит
Тип развёртки : Чересстрочная
Порядок развёртки : Верхнее поле первое
Бит/(Пиксели*Кадры) : 0.123
Размер потока : 944 Мбайт (85%)
Аудио #1
Идентификатор : 4352 (0x1100)
Идентификатор меню : 1 (0x1)
Формат : AC-3
Формат/Информация : Audio Coding 3
Расширение режима : CM (complete main)
Параметр Endianness формата : Big
Идентификатор кодека : 129
Продолжительность : 20 м.
Вид битрейта : Постоянный
Битрейт : 384 Кбит/сек
Каналы : 6 каналов
Расположение каналов : Front: L C R, Side: L R, LFE
Частота : 48,0 КГц
Битовая глубина : 16 бит
Метод сжатия : С потерями
Размер потока : 56,8 Мбайт (5%)
Язык : Russian
Аудио #2
Идентификатор : 4353 (0x1101)
Идентификатор меню : 1 (0x1)
Формат : AC-3
Формат/Информация : Audio Coding 3
Расширение режима : CM (complete main)
Параметр Endianness формата : Big
Идентификатор кодека : 129
Продолжительность : 20 м.
Вид битрейта : Постоянный
Битрейт : 384 Кбит/сек
Каналы : 6 каналов
Расположение каналов : Front: L C R, Side: L R, LFE
Частота : 48,0 КГц
Битовая глубина : 16 бит
Метод сжатия : С потерями
Размер потока : 56,8 Мбайт (5%)
Язык : English

_________________
[Торрент-статистика]
[Профиль]  [ЛС] 
Показать сообщения:    
Ответить на тему

Текущее время: Сегодня 23:49

Часовой пояс: GMT + 4



Вы не можете начинать темы
Вы не можете отвечать на сообщения
Вы не можете редактировать свои сообщения
Вы не можете удалять свои сообщения
Вы не можете голосовать в опросах
Вы не можете прикреплять файлы к сообщениям
Вы не можете скачивать файлы