Мыслить как преступник / Criminal Minds / Сезон 6 / Серии 1-24 (24) (Гленн Кершоу, Феликс Энрикез Алькала, Эдвард Аллен Бернеро) [2010—2011 г., драма, криминал, триллер, WEB-DL 720p] MVO FOX Crime + Original

Ответить на тему
 
Автор
Сообщение

awk05 ®

Пол:

Стаж: 6 лет 2 месяца

Сообщений: 1351

Репутация: 275 [+] [-]

Откуда: Западная Украина Ривне

Пост 16-Июл-2014 22:29

[Цитировать] 

--Мыслить как преступник / Criminal Minds
«To catch a criminal, you have to think like one»
-- Год выпуска: 2008—2009
Страна: США
Жанр: драма, криминал, триллер
Сезон/Серия: Сезон:6 /Серия 1-24 из 24
Продолжительность: 24 х ~00:42:00
Перевод: профессиональный многоголосый закадровый (FOX Crime)
Субтитры: отсутствуют--Режиссёр: Гленн Кершоу, Феликс Энрикез Алькала, Эдвард Аллен Бернеро--В ролях: Шемар Мур (Derek Morgan), Мэттью Грей Габлер (Dr. Spencer Reid), Томас Гибсон (Aaron 'Hotch' Hotchner), Кирстен Вангснесс (Penelope Garcia), А.Дж. Кук (Jennifer 'JJ' Jareau), Пегит Брюстер (Emily Prentiss), Джо Мантенья (David Rossi), Мэнди Пэтинкин (Jason Gideon), Лола Глаудини (Elle Greenaway), Мередит Монро (Haley Hotchner), Джейн Эткинсон (Erin Strauss), Николас Брендон (Kevin Lynch)--Описание: Главные герои сериала - команда лучших следователей ФБР, способных понять и проанализировать ход мыслей самых изощрённых преступников, предугадать их дальнейшие поступки и тем самым предотвратить ужасные преступления. Когда обычные криминалисты заходят в тупик, на помощь им приходят специалисты по поведенческому анализу. Вместо тщательного изучения улик они пытаются найти и понять мотивы преступления, досконально вникая в каждый шаг преступника и пытаясь мыслить, как он. Работая на месте преступления, эти профессионалы словно расследуют его изнутри, стараясь понять мысли преступника, какими бы тёмными они ни были.--Качество видео: WEB-DL 720p
Формат видео: MKV
Видео кодек: AVC (High@L3.1)
Аудио кодек: AC-3
Видео: AVC, 1280x720 (16:9), 23.976 fps, ~4 485 kbps avg, 0.173 bit/pixel
Аудио 1: AC-3, 48.0 KHz, 2 ch, 192 Kbps, CBR, 16 бит [RUS] FOX Crime
Аудио 2: AC-3, 48.0 KHz, 6 ch, 384 Kbps, CBR, 16 бит [ENG] -- --

Список серий

01. The Longest Night (Part 2) / Самая длинная ночь
02. JJ / Джей Джей
03. Remembrance of Things Past / Воспоминание о прошлом
04. Compromising Positions / Компрометриующие позиции
05. Safe Haven / Безопасное убежище
06. Devil's Night / Ночь Дьявола
07. Middle Man / Посредник
08. Reflection of Desire / Отражение желания
09. Into the Woods / В лес
10. What Happens at Home / Что происходит дома
11. 25 to Life / Приговоренный пожизненно
12. Corazon / Душа
13. The Thirteenth Step / Тринадцатый шаг
14. Sense Memory / Чувственная память
15. Today I Do / Я есть сегодня
16. Coda / Хвост
17. Valhalla (Part 1) / Вальгалла
18. Lauren (Part 2) / Лорен
19. With Friends Like These... / С такими друзьями...
20. Hanley Waters / Хэнли уотерс
21. The Stranger / Незнакомец
22. Out of the Light / Из света
23. Big Sea / Большое море
24. Supply & Demand / Спрос и предложение

Скриншоты

Знаете ли Вы, что...

* Экранный сын героини Дженифер Джеро — Генри ЛаМонтейн, на самом деле сын актрисы А. Дж. Кук.

Тех. данные (MI)

Общее
Уникальный идентификатор : 172033976372895323752487849331024023224 (0x816C89E548E0A4E180D3942A58394EB8)
Полное имя : E:\тест\Criminal.Minds\Criminal.Minds.S06.720p.WEB-DL.Rus_Fox\Criminal.Minds.S06E01.720p.WEB-DL.Rus_Fox.mkv
Формат : Matroska
Версия формата : Version 2
Размер файла : 1,37 Гбайт
Продолжительность : 43 м.
Общий поток : 4485 Кбит/сек
Дата кодирования : UTC 2011-01-28 20:11:58
Программа кодирования : mkvmerge v4.4.0 ('Die Wiederkehr') сборка от Oct 31 2010 21:52:48
Библиотека кодирования : libebml v1.0.0 + libmatroska v1.0.0
Видео
Идентификатор : 1
Формат : AVC
Формат/Информация : Advanced Video Codec
Профиль формата : High@L3.1
Параметр CABAC формата : Нет
Параметр ReFrames формата : 2 кадра
Режим смешивания : Header stripping
Идентификатор кодека : V_MPEG4/ISO/AVC
Продолжительность : 43 м.
Битрейт : 3820 Кбит/сек
Ширина : 1280 пикселей
Высота : 720 пикселей
Соотношение сторон : 16:9
Режим частоты кадров : Постоянный
Частота кадров : 23,976 кадра/сек
Цветовое пространство : YUV
Субдискретизация насыщенности : 4:2:0
Битовая глубина : 8 бит
Тип развёртки : Прогрессивная
Бит/(Пиксели*Кадры) : 0.173
Размер потока : 1,17 Гбайт (85%)
Заголовок : Criminal Minds - Season 6, Episode 1: The Longest Night
Язык : English
Default : Да
Forced : Нет
Основные цвета : BT.709
Характеристики трансфера : BT.709
Коэффициенты матрицы : BT.709
Аудио #1
Идентификатор : 2
Формат : AC-3
Формат/Информация : Audio Coding 3
Расширение режима : CM (complete main)
Параметр Endianness формата : Big
Режим смешивания : Header stripping
Идентификатор кодека : A_AC3
Продолжительность : 43 м.
Вид битрейта : Постоянный
Битрейт : 192 Кбит/сек
Каналы : 2 канала
Расположение каналов : Front: L R
Частота : 48,0 КГц
Битовая глубина : 16 бит
Метод сжатия : С потерями
Размер потока : 60,0 Мбайт (4%)
Заголовок : FoxCrime
Язык : Russian
Default : Да
Forced : Нет
Аудио #2
Идентификатор : 3
Формат : AC-3
Формат/Информация : Audio Coding 3
Расширение режима : CM (complete main)
Параметр Endianness формата : Big
Режим смешивания : Header stripping
Идентификатор кодека : A_AC3
Продолжительность : 43 м.
Вид битрейта : Постоянный
Битрейт : 384 Кбит/сек
Каналы : 6 каналов
Расположение каналов : Front: L C R, Side: L R, LFE
Частота : 48,0 КГц
Битовая глубина : 16 бит
Метод сжатия : С потерями
Размер потока : 120 Мбайт (9%)
Заголовок : Dolby Digital 5.1 @ 384 kbps
Язык : English
Default : Нет
Forced : Нет

_________________
[Торрент-статистика]
[Профиль]  [ЛС] 
Показать сообщения:    
Ответить на тему

Текущее время: Сегодня 08:12

Часовой пояс: GMT + 4



Вы не можете начинать темы
Вы не можете отвечать на сообщения
Вы не можете редактировать свои сообщения
Вы не можете удалять свои сообщения
Вы не можете голосовать в опросах
Вы не можете прикреплять файлы к сообщениям
Вы не можете скачивать файлы