Мыслить как преступник / Criminal Minds / Сезон 4 / Серии 1-26 (26) (Гленн Кершоу, Феликс Энрикез Алькала, Эдвард Аллен Бернеро) [2008—2009 г., драма, криминал, триллер, WEB-DL 720p] MVO FOX Crime + Original

Ответить на тему
 
Автор
Сообщение

awk05 ®

Пол:

Стаж: 6 лет 2 месяца

Сообщений: 1351

Репутация: 275 [+] [-]

Откуда: Западная Украина Ривне

Пост 16-Июл-2014 21:59

[Цитировать] 

--Мыслить как преступник / Criminal Minds
«To catch a criminal, you have to think like one»
-- Год выпуска: 2008—2009
Страна: США
Жанр: драма, криминал, триллер
Сезон/Серия: Сезон:4 /Серия 1-26 из 26
Продолжительность: 26 х ~00:42:00
Перевод: профессиональный многоголосый закадровый (FOX Crime)
Субтитры: отсутствуют--Режиссёр: Гленн Кершоу, Феликс Энрикез Алькала, Эдвард Аллен Бернеро--В ролях: Шемар Мур (Derek Morgan), Мэттью Грей Габлер (Dr. Spencer Reid), Томас Гибсон (Aaron 'Hotch' Hotchner), Кирстен Вангснесс (Penelope Garcia), А.Дж. Кук (Jennifer 'JJ' Jareau), Пегит Брюстер (Emily Prentiss), Джо Мантенья (David Rossi), Мэнди Пэтинкин (Jason Gideon), Лола Глаудини (Elle Greenaway), Мередит Монро (Haley Hotchner), Джейн Эткинсон (Erin Strauss), Николас Брендон (Kevin Lynch)--Описание: Главные герои сериала - команда лучших следователей ФБР, способных понять и проанализировать ход мыслей самых изощрённых преступников, предугадать их дальнейшие поступки и тем самым предотвратить ужасные преступления. Когда обычные криминалисты заходят в тупик, на помощь им приходят специалисты по поведенческому анализу. Вместо тщательного изучения улик они пытаются найти и понять мотивы преступления, досконально вникая в каждый шаг преступника и пытаясь мыслить, как он. Работая на месте преступления, эти профессионалы словно расследуют его изнутри, стараясь понять мысли преступника, какими бы тёмными они ни были.--Качество видео: WEB-DL 720p
Формат видео: MKV
Видео кодек: AVC (High@L3.1)
Аудио кодек: AC-3
Видео: AVC, 1280x720 (16:9), 23.976 fps, ~3 995 kbps avg, 0.181 bit/pixel
Аудио 1: AC-3, 48.0 KHz, 2 ch, 192 Kbps, CBR, 16 бит [RUS] FOX Crime
Аудио 2: AC-3, 48.0 KHz, 6 ch, 384 Kbps, CBR, 16 бит [ENG] -- --

Список серий

01. Mayhem / Хаос
02. The Angel Maker / Ангелотворец
03. Minimal Loss / Минимальные потери
04. Paradise / Рай
05. Catching out / Отлов
06. The Instincts (Part 1) / Инстинкты
07. Memoriam (Part 2) / В память
08. Masterpiece / Шедевр
09. 52 Pickup / Искусство соблазнения
10. Brothers in Arms / Братья по оружию
11. Normal / Обычный
12. Soul Mates / Родственные души
13. Bloodline / Родословная
14. Cold Comfort / Слабое утешение
15. Zoe's Reprise / Возрождение Зоуи
16. Pleasure is My Business / Удовольствие - моя работа
17. Demonology / Демонология
18. Omnivore / Всеядный
19. House on Fire / Дом в огне
20. Conflicted / Противоречия
21. A Shade of Gray / Оттенки серого
22. The Big Wheel / Большое колесо
23. Roadkill / Наезд
24. Amplification / Преувеличение
25. To Hell... (Part 1) / В ад...
26. ...And Back (Part 2) / ...и обратно

Скриншоты

Знаете ли Вы, что...

* Экранный сын героини Дженифер Джеро — Генри ЛаМонтейн, на самом деле сын актрисы А. Дж. Кук.

Тех. данные (MI)

General
Complete name : Мыслить как преступник\Criminal Minds S04 720p\Criminal.Minds.S04E05.rus(FOX Crime).eng.720p.web-dl Catching Out.mkv
Format : Matroska
File size : 1.36 GiB
Duration : 41mn 43s
Overall bit rate : 4 664 Kbps
Encoded date : UTC 2011-08-25 10:05:05
Writing application : mkvmerge v4.8.0 ('I Got The...') сборка от May 24 2011 03:12:58
Writing library : libebml v1.2.0 + libmatroska v1.1.0
Video
ID : 1
Format : AVC
Format/Info : Advanced Video Codec
Format profile : High@L3.1
Format settings, CABAC : No
Format settings, ReFrames : 2 frames
Codec ID : V_MPEG4/ISO/AVC
Duration : 41mn 43s
Bit rate mode : Variable
Bit rate : 3 995 Kbps
Width : 1 280 pixels
Height : 720 pixels
Display aspect ratio : 16:9
Frame rate : 23.976 fps
Color space : YUV
Chroma subsampling : 4:2:0
Bit depth : 8 bits
Scan type : Progressive
Bits/(Pixel*Frame) : 0.181
Stream size : 1.16 GiB (86%)
Language : English
Color primaries : BT.709-5, BT.1361, IEC 61966-2-4, SMPTE RP177
Transfer characteristics : BT.709-5, BT.1361
Matrix coefficients : BT.709-5, BT.1361, IEC 61966-2-4 709, SMPTE RP177
Audio #1
ID : 2
Format : AC-3
Format/Info : Audio Coding 3
Mode extension : CM (complete main)
Codec ID : A_AC3
Duration : 41mn 43s
Bit rate mode : Constant
Bit rate : 192 Kbps
Channel(s) : 2 channels
Channel positions : Front: L R
Sampling rate : 48.0 KHz
Bit depth : 16 bits
Stream size : 57.3 MiB (4%)
Title : FOX Crime
Language : Russian
Audio #2
ID : 3
Format : AC-3
Format/Info : Audio Coding 3
Mode extension : CM (complete main)
Codec ID : A_AC3
Duration : 41mn 43s
Bit rate mode : Constant
Bit rate : 384 Kbps
Channel(s) : 6 channels
Channel positions : Front: L C R, Side: L R, LFE
Sampling rate : 48.0 KHz
Bit depth : 16 bits
Stream size : 115 MiB (8%)
Language : English

_________________
[Торрент-статистика]
[Профиль]  [ЛС] 
Показать сообщения:    
Ответить на тему

Текущее время: Сегодня 02:52

Часовой пояс: GMT + 4



Вы не можете начинать темы
Вы не можете отвечать на сообщения
Вы не можете редактировать свои сообщения
Вы не можете удалять свои сообщения
Вы не можете голосовать в опросах
Вы не можете прикреплять файлы к сообщениям
Вы не можете скачивать файлы