Мыслить как преступник / Criminal Minds / Сезон 2 / Серии 1-23 (23) (Гленн Кершоу, Феликс Энрикез Алькала, Эдвард Аллен Бернеро) [2006—2007 г., драма, криминал, триллер, WEB-DL 720p] DVO ДТВ + Original

Ответить на тему
 
Автор
Сообщение

awk05 ®

Пол:

Стаж: 6 лет 5 месяцев

Сообщений: 1347

Репутация: 275 [+] [-]

Откуда: Западная Украина Ривне

Пост 16-Июл-2014 21:01

[Цитировать] 

--Мыслить как преступник / Criminal Minds
«To catch a criminal, you have to think like one»
-- Год выпуска: 2006—2007
Страна: США
Жанр: драма, криминал, триллер
Сезон/Серия: Сезон:2 /Серия 1-23 из 23
Продолжительность: 23 х ~00:43:00
Перевод: профессиональный двухголосый закадровый (ДТВ)
Субтитры: отсутствуют--Режиссёр: Гленн Кершоу, Феликс Энрикез Алькала, Эдвард Аллен Бернеро--В ролях: Шемар Мур (Derek Morgan), Мэттью Грей Габлер (Dr. Spencer Reid), Томас Гибсон (Aaron 'Hotch' Hotchner), Кирстен Вангснесс (Penelope Garcia), А.Дж. Кук (Jennifer 'JJ' Jareau), Пегит Брюстер (Emily Prentiss), Джо Мантенья (David Rossi), Мэнди Пэтинкин (Jason Gideon), Лола Глаудини (Elle Greenaway), Мередит Монро (Haley Hotchner), Джейн Эткинсон (Erin Strauss), Николас Брендон (Kevin Lynch)--Описание: В Сиэтле за короткое время пропали без вести четыре молодые девушки. Возникает версия, что в городе появился серийный маньяк-убийца. За расследование этого криминального случая берется спецподразделение ФБР, специализирующееся на поведенческом анализе действий преступников. Во главе этого подразделения стоит Джейсон Гидеон, который со своими напарниками пытается вычислить преступника, создавая его психологический портрет. Джейсон — не частый гость криминалистических лабораторий ФБР. Он и его команда выезжают на места преступлений, опрашивают свидетелей, анализируют и изучают психологическую сторону жизни преступника…--Качество видео: WEB-DL 720p
Формат видео: MKV
Видео кодек: AVC (High@L3.1)
Аудио кодек: AC-3
Видео: AVC, 1280x720 (16:9), 23.976 fps, ~3 950 kbps avg, 0.184 bit/pixel
Аудио 1: AC-3, 48.0 KHz, 2 ch, 192 Kbps, CBR, 16 бит [RUS]
Аудио 2: AC-3, 48.0 KHz, 6 ch, 384 Kbps, CBR, 16 бит [ENG] -- --

Список серий

01. The Fisher King: Part 2 / Король - рыбак (часть 2)
02. P911 / P911
03. The Perfect Storm / Идеальный шторм
04. Psychodrama / Психодрама
05. The Aftermath / Последствия
06. The Boogeyman / Бугимэн
07. North Mammon / Клетка
08. Empty Planet / Пустая планета
09. The Last Word / Последнее слово
10. Lessons Learned / Преподать урок
11. Sex, Birth, Death / Секс, рождение и смерть
12. Profiler, Profiled / Профайл профайлера
13. No Way Out / Выхода нет
14. The Big Game / Большая игра
15. Revelations / Откровение
16. Fear and Loathing / Страх и отвращение
17. Distress / Бедствие
18. Jones / Джонс
19. Ashes and Dust / Пыль и пепел
20. Honor Among Thieves / Честь среди воров
21. Open Season / Сезон охоты
22. Legacy / Наследие
23. No Way Out II: The Evilution of Frank / Выхода нет 2: Зловолюция Фрэнка

Скриншоты

Знаете ли Вы, что...

* Экранный сын героини Дженифер Джеро — Генри ЛаМонтейн, на самом деле сын актрисы А. Дж. Кук.

Тех. данные (MI)

General
Complete name : E:\Torrent\Serials\Мыслить как преступник\Criminal Minds S02 720p\Criminal.Minds.S02E01.rus(DTV).eng.720p.web-dl.mkv
Format : Matroska
File size : 1.41 GiB
Duration : 42mn 47s
Overall bit rate : 4 726 Kbps
Encoded date : UTC 2011-05-15 12:59:34
Writing application : mkvmerge v4.7.0 ('Just Like You Imagined') сборка от Apr 21 2011 01:13:14
Writing library : libebml v1.2.0 + libmatroska v1.1.0
Video
ID : 1
Format : AVC
Format/Info : Advanced Video Codec
Format profile : High@L3.1
Format settings, CABAC : No
Format settings, ReFrames : 2 frames
Format settings, GOP : M=2, N=32
Codec ID : V_MPEG4/ISO/AVC
Duration : 42mn 47s
Bit rate mode : Variable
Bit rate : 4 056 Kbps
Width : 1 280 pixels
Height : 720 pixels
Display aspect ratio : 16:9
Frame rate : 23.976 fps
Color space : YUV
Chroma subsampling : 4:2:0
Bit depth : 8 bits
Scan type : Progressive
Bits/(Pixel*Frame) : 0.184
Stream size : 1.21 GiB (86%)
Language : English
Color primaries : BT.709-5, BT.1361, IEC 61966-2-4, SMPTE RP177
Transfer characteristics : BT.709-5, BT.1361
Matrix coefficients : BT.709-5, BT.1361, IEC 61966-2-4 709, SMPTE RP177
Audio #1
ID : 2
Format : AC-3
Format/Info : Audio Coding 3
Mode extension : CM (complete main)
Codec ID : A_AC3
Duration : 42mn 47s
Bit rate mode : Constant
Bit rate : 192 Kbps
Channel(s) : 2 channels
Channel positions : Front: L R
Sampling rate : 48.0 KHz
Bit depth : 16 bits
Stream size : 58.8 MiB (4%)
Title : DTV
Language : Russian
Audio #2
ID : 3
Format : AC-3
Format/Info : Audio Coding 3
Mode extension : CM (complete main)
Codec ID : A_AC3
Duration : 42mn 47s
Bit rate mode : Constant
Bit rate : 384 Kbps
Channel(s) : 6 channels
Channel positions : Front: L C R, Side: L R, LFE
Sampling rate : 48.0 KHz
Bit depth : 16 bits
Stream size : 118 MiB (8%)
Language : English

_________________
[Торрент-статистика]
[Профиль]  [ЛС] 
Показать сообщения:    
Ответить на тему

Текущее время: Сегодня 10:59

Часовой пояс: GMT + 4



Вы не можете начинать темы
Вы не можете отвечать на сообщения
Вы не можете редактировать свои сообщения
Вы не можете удалять свои сообщения
Вы не можете голосовать в опросах
Вы не можете прикреплять файлы к сообщениям
Вы не можете скачивать файлы