Мыслить как преступник / Criminal Minds / Сезон 1 / Серии 1-22 (22) (Гленн Кершоу, Феликс Энрикез Алькала, Эдвард Аллен Бернеро) [2005—2006 г., драма, криминал, триллер, WEB-DL 720p] DVO ДТВ + Original

Ответить на тему
 
Автор
Сообщение

awk05 ®

Пол:

Стаж: 6 лет 2 месяца

Сообщений: 1351

Репутация: 275 [+] [-]

Откуда: Западная Украина Ривне

Пост 16-Июл-2014 20:49

[Цитировать] 

--Мыслить как преступник / Criminal Minds
«To catch a criminal, you have to think like one»
-- Год выпуска: 2005—2006
Страна: США
Жанр: драма, криминал, триллер
Сезон/Серия: Сезон:1 /Серия 1-22 из 22
Продолжительность: 22 х ~00:40:00
Перевод: профессиональный двухголосый закадровый (ДТВ)
Субтитры: отсутствуют--Режиссёр: Гленн Кершоу, Феликс Энрикез Алькала, Эдвард Аллен Бернеро--В ролях: Шемар Мур (Derek Morgan), Мэттью Грей Габлер (Dr. Spencer Reid), Томас Гибсон (Aaron 'Hotch' Hotchner), Кирстен Вангснесс (Penelope Garcia), А.Дж. Кук (Jennifer 'JJ' Jareau), Пегит Брюстер (Emily Prentiss), Джо Мантенья (David Rossi), Мэнди Пэтинкин (Jason Gideon), Лола Глаудини (Elle Greenaway), Мередит Монро (Haley Hotchner), Джейн Эткинсон (Erin Strauss), Николас Брендон (Kevin Lynch)--Описание: В Сиэтле за короткое время пропали без вести четыре молодые девушки. Возникает версия, что в городе появился серийный маньяк-убийца. За расследование этого криминального случая берется спецподразделение ФБР, специализирующееся на поведенческом анализе действий преступников. Во главе этого подразделения стоит Джейсон Гидеон, который со своими напарниками пытается вычислить преступника, создавая его психологический портрет. Джейсон — не частый гость криминалистических лабораторий ФБР. Он и его команда выезжают на места преступлений, опрашивают свидетелей, анализируют и изучают психологическую сторону жизни преступника…--Качество видео: WEB-DL 720p
Формат видео: MKV
Видео кодек: AVC (High@L3.1)
Аудио кодек: AC-3
Видео: AVC, 1280x720 (16:9), 23.976 fps, ~3 983 kbps avg, 0.180 bit/pixel
Аудио 1: AC-3, 48.0 KHz, 2 ch, 192 Kbps, CBR, 16 бит [RUS]
Аудио 2: AC-3, 48.0 KHz, 6 ch, 384 Kbps, CBR, 16 бит [ENG] -- --

Список серий

01. Extreme Aggressor / Крайняя агрессивность
02. Compulsion / Принуждение
03. Won't Get Fooled Again / Нас не обманеш
04. Plain Sight / Ясный взгляд
05. Broken Mirror / Разбитое зеркало
06. L.D.S.K. / Убийца на расстоянии
07. The Fox / Лиса
08. Natural Born Killer / Прирожденный убийца
09. Derailed / Цена измены
10. The Popular Kids / Популярные дети
11. Blood Hungry / Жажда крови
12. What Fresh Hell / Ад
13. Poison / Яд
14. Riding the Lightning / Верхом на молнии
15. Unfinished Business / Незаконченное дело
16. The Tribe / Племя
17. A Real Rain / Проливной дождь
18. Somebody's Watching / Когда кто-то наблюдает
19. Machismo / Мачизм
20. Charm and Harm / Обаяние и жестокость
21. Secrets and Lies / Тайны и ложь
22. The Fisher King (Part 1) / Король-рыбак (часть 1)

Скриншоты

Знаете ли Вы, что...

* Экранный сын героини Дженифер Джеро — Генри ЛаМонтейн, на самом деле сын актрисы А. Дж. Кук.

Тех. данные (MI)

Общее
Уникальный идентификатор : 243085943711124331114959958734435674099 (0xB6E0A659A3AEA131AD1A84DF7C7A67F3)
Полное имя : E:\тест\Criminal.Minds\Criminal.Minds.S01.WEB-DL\Criminal.Minds.S01E01.Extreme Aggressor.WEB-DL.mkv
Формат : Matroska
Версия формата : Version 2
Размер файла : 1,35 Гбайт
Продолжительность : 41 м.
Общий поток : 4651 Кбит/сек
Дата кодирования : UTC 2010-08-31 13:49:11
Программа кодирования : mkvmerge v4.2.0 ('No Talking') сборка от Jul 28 2010 18:38:23
Библиотека кодирования : libebml v1.0.0 + libmatroska v1.0.0
Видео
Идентификатор : 1
Формат : AVC
Формат/Информация : Advanced Video Codec
Профиль формата : High@L3.1
Параметр CABAC формата : Нет
Параметр ReFrames формата : 2 кадра
Режим смешивания : Header stripping
Идентификатор кодека : V_MPEG4/ISO/AVC
Продолжительность : 41 м.
Битрейт : 3983 Кбит/сек
Ширина : 1280 пикселей
Высота : 720 пикселей
Соотношение сторон : 16:9
Режим частоты кадров : Постоянный
Частота кадров : 23,976 кадра/сек
Цветовое пространство : YUV
Субдискретизация насыщенности : 4:2:0
Битовая глубина : 8 бит
Тип развёртки : Прогрессивная
Бит/(Пиксели*Кадры) : 0.180
Размер потока : 1,16 Гбайт (86%)
Язык : English
Default : Да
Forced : Нет
Основные цвета : BT.709
Характеристики трансфера : BT.709
Коэффициенты матрицы : BT.709
Аудио #1
Идентификатор : 2
Формат : AC-3
Формат/Информация : Audio Coding 3
Расширение режима : CM (complete main)
Параметр Endianness формата : Big
Режим смешивания : Header stripping
Идентификатор кодека : A_AC3
Продолжительность : 41 м.
Вид битрейта : Постоянный
Битрейт : 192 Кбит/сек
Каналы : 2 канала
Расположение каналов : Front: L R
Частота : 48,0 КГц
Битовая глубина : 16 бит
Метод сжатия : С потерями
Размер потока : 57,3 Мбайт (4%)
Язык : Russian
Default : Да
Forced : Нет
Аудио #2
Идентификатор : 3
Формат : AC-3
Формат/Информация : Audio Coding 3
Расширение режима : CM (complete main)
Параметр Endianness формата : Big
Режим смешивания : Header stripping
Идентификатор кодека : A_AC3
Продолжительность : 41 м.
Вид битрейта : Постоянный
Битрейт : 384 Кбит/сек
Каналы : 6 каналов
Расположение каналов : Front: L C R, Side: L R, LFE
Частота : 48,0 КГц
Битовая глубина : 16 бит
Метод сжатия : С потерями
Размер потока : 115 Мбайт (8%)
Язык : English
Default : Нет
Forced : Нет

_________________
[Торрент-статистика]
[Профиль]  [ЛС] 
Показать сообщения:    
Ответить на тему

Текущее время: Сегодня 08:12

Часовой пояс: GMT + 4



Вы не можете начинать темы
Вы не можете отвечать на сообщения
Вы не можете редактировать свои сообщения
Вы не можете удалять свои сообщения
Вы не можете голосовать в опросах
Вы не можете прикреплять файлы к сообщениям
Вы не можете скачивать файлы