Несвидабельные / Не пригодные для свиданий / Undateable / Сезон: 1 / Серии: 1-12 из 12 (Скотт Эллис, Дэвид Трейнер, Тед Уасс, Эрик Дин Ситон, Стив Цуккерман) [2014, комедия, WEB-DL 720p] MVO (BaibaKo) + Original

Ответить на тему
 
Автор
Сообщение

awk05 ®

Пол:

Стаж: 6 лет 5 месяцев

Сообщений: 1347

Репутация: 275 [+] [-]

Откуда: Западная Украина Ривне

Пост 11-Июл-2014 19:21

[Цитировать] 

--Несвидабельные / Undateable-- Год выпуска: 2014
Страна: США
Жанр: комедия
Сезон/Серия: Сезон:1 /Серия 1-12 из 12
Продолжительность: 12 х ~ 00:22:00
Перевод: Любительский (многоголосый, закадровый) (BaibaKo) + Original
Субтитры: отсутствуют--Режиссёр: Скотт Эллис, Дэвид Трейнер, Тед Уасс--В ролях: Крис Д’Илайа, Брент Морин, Бьянка Кэйлик, Рик Глассман, Рон Фанчес, Брига Хилэн, Хантер Элизабет, Дэвид Финн, Эрин Бодин, Малиабет Джонсон--Описание: Комедийный сериал расскажет о группе друзей, у которых все не ладится с личной жизнью. Можно даже сказать, что коллеги по несчастью уже согласились со своей участью и даже не предпринимают никаких попыток, а если таковые иногда и случаются, то заведомо их ожидает крах... Но вот однажды к одному из этих парней, Джастину, приезжает профессиональный бездельник и повеса Дэнни Биман. Гость оказывается в окружении чудаков и неудачников, жаждущих романтики. Он начинает учить ребят искусству обольщения.--Качество видео: WEB-DL 720p
Формат видео: MKV
Видео кодек: AVC (High@L3.1)
Аудио кодек: AC-3
Видео: AVC, 1280x718 (16:9), 23.976 fps, 3 965 Kbps (0.180 bit/pixel)
Аудио 1: AC-3, 48.0 KHz, 6 ch, 384 Kbps, CBR, 16 бит [RUS]
Аудио 2: AC-3, 48.0 KHz, 6 ch, 384 Kbps, CBR, 16 бит [ENG] -- --

Тех. данные (MI)

Код:
Общее
Уникальный идентификатор : 181434084649034865219716053468791456137 (0x887EEF04112288F59B4E9433FEAC4189)
Полное имя : G:\Films\Undateable.s01.HD720p\Undateable.s01e01.HD720p.WEB-DL.Rus-Eng.BaibaKo.tv.mkv
Формат : Matroska
Версия формата : Version 4 / Version 2
Размер файла : 745 Мбайт
Продолжительность : 21 м.
Общий поток : 4829 Кбит/сек
Дата кодирования : UTC 2014-06-01 20:32:39
Программа кодирования : mkvmerge v6.7.0 ('Back to the Ground') 64bit built on Jan 8 2014 15:10:52
Библиотека кодирования : libebml v1.3.0 + libmatroska v1.4.1
Видео
Идентификатор : 1
Формат : AVC
Формат/Информация : Advanced Video Codec
Профиль формата : High@L3.1
Параметр CABAC формата : Нет
Параметр ReFrames формата : 2 кадра
Идентификатор кодека : V_MPEG4/ISO/AVC
Продолжительность : 21 м.
Битрейт : 3965 Кбит/сек
Ширина : 1280 пикселей
Высота : 718 пикселей
Соотношение сторон : 16:9
Режим частоты кадров : Постоянный
Частота кадров : 23,976 кадра/сек
Цветовое пространство : YUV
Субдискретизация насыщенности : 4:2:0
Битовая глубина : 8 бит
Тип развёртки : Прогрессивная
Бит/(Пиксели*Кадры) : 0.180
Размер потока : 611 Мбайт (82%)
Язык : English
Default : Да
Forced : Нет
Основные цвета : BT.709
Характеристики трансфера : BT.709
Коэффициенты матрицы : BT.709
Аудио #1
Идентификатор : 2
Формат : AC-3
Формат/Информация : Audio Coding 3
Расширение режима : CM (complete main)
Параметр Endianness формата : Big
Идентификатор кодека : A_AC3
Продолжительность : 21 м.
Вид битрейта : Постоянный
Битрейт : 384 Кбит/сек
Каналы : 6 каналов
Расположение каналов : Front: L C R, Side: L R, LFE
Частота : 48,0 КГц
Битовая глубина : 16 бит
Метод сжатия : С потерями
Размер потока : 59,2 Мбайт (8%)
Язык : Russian
Default : Да
Forced : Нет
Аудио #2
Идентификатор : 3
Формат : AC-3
Формат/Информация : Audio Coding 3
Расширение режима : CM (complete main)
Параметр Endianness формата : Big
Идентификатор кодека : A_AC3
Продолжительность : 21 м.
Вид битрейта : Постоянный
Битрейт : 384 Кбит/сек
Каналы : 6 каналов
Расположение каналов : Front: L C R, Side: L R, LFE
Частота : 48,0 КГц
Битовая глубина : 16 бит
Метод сжатия : С потерями
Размер потока : 59,2 Мбайт (8%)
Язык : English
Default : Нет
Forced : Нет

Скриншоты


_________________
[Торрент-статистика]
[Профиль]  [ЛС] 
Показать сообщения:    
Ответить на тему

Текущее время: Сегодня 07:46

Часовой пояс: GMT + 4



Вы не можете начинать темы
Вы не можете отвечать на сообщения
Вы не можете редактировать свои сообщения
Вы не можете удалять свои сообщения
Вы не можете голосовать в опросах
Вы не можете прикреплять файлы к сообщениям
Вы не можете скачивать файлы