Ведьмы Ист-Энда / Witches of East End / Сезон: 2 / Серии: 1-12 из 13 (Джон Скотт, Аллан Аркуш, Фред Гербер) [2013, Фэнтези, драма, WEB-DL 720p ] MVO (LostFilm) (Обновляемая)

Ответить на тему
 
Автор
Сообщение

awk05 ®

Пол:

Стаж: 6 лет 6 месяцев

Сообщений: 1347

Репутация: 275 [+] [-]

Откуда: Западная Украина Ривне

Пост 10-Июл-2014 03:12

[Цитировать] 

--Ведьмы Ист-Энда / Witches of East End-- Год выпуска: 2014
Страна: США
Жанр: Фэнтези, драма
Сезон/серия: Сезон 2 / Серии 1-11 из 13
Продолжительность: 13 х ~00:45:00
Перевод: Профессиональный (многоголосый закадровый) - LostFilm
Субтитры: отсутствуют--Режиссёр: Джон Скотт, Аллан Аркуш, Фред Гербер--В ролях: Джулия Ормонд, Медкен Эмик, Дженна Деван-Татум, Рейчел Бостон, Дэниэл ДиТомассо, Эрик Винтер и др.--Описание: Драматический сериал «Ведьмы Ист-Энда» (Witches of East End) рассказывает о ведьмах семейства Бошам. Главную роль в сериале Джулия Ормонд («Сибирский цирюльник»), а двумя ее экранными дочерьми стали актрисы Дженна Деван-Татум и Рэйчел Бостон.
За основу сериала взят одноименный цикл романов американской писательницы Мелиссы де ла Круз. Жизнь героев совсем не безмятежна. Добрая, но грустная ведьма Джоанна (Ормонд) бессмертна и проклята — на протяжении веков она раз за разом вынуждена наблюдать смерти своих близких.
Судьбы не только членов семьи Бошам, но и многих других жителей маленького городка оказываются тесно переплетены между собой. Темы перерождения душ, магии, фатума и бессмертной любви занимают основную часть сюжета сериала.--Качество видео: WEB-DL 720p
Формат видео: MP4
Видео кодек: AVC (High@L3.1)
Аудио кодек: AAC LC
Видео: AVC, 1280x720 (16:9), 23.976 fps, 4 000 Kbps (0.193 bit/pixel))
Аудио: AAC LC, 48.0 KHz, 2 ch, 128 Kbps, VBR, 16 бит [RUS] -- --

Список серий

01. Неуловимый зверь / A Moveable Beast
02. Возвращение блудного сына / The Son Also Rises
03. Старик и ключ / The Old Man and the Key
04. Гримуар братьев /The Brothers Grimoire
05. Ужасный рыцарь / Boogie Knight
06. Влюбилась мандрагора в деву (When a Mandragora Loves a Woman)
07. Искусство тьмы (Art of Darkness)
08. Секс, ложь и праздничный торт (Sex, Lies, and Birthday Cake)
09. Дух короля / Smells Like King Spirit
10. Падение дома Бошамов (The Fall of the House of Beauchamp)
11. Через По к спасению (Poe Way Out)
12. Шкатулка в будущее (Box to the Future)
13. По ком звонит заклятие (For Whom the Spell Tolls)

MediaInfo

Общее
Полное имя : E:\Сериалы новые\Witches.of.East.End.S02\Witches.of.East.End.S02E01.720p.WEB.rus.LostFilm.TV.mp4
Формат : MPEG-4
Профиль формата : Base Media
Идентификатор кодека : isom
Размер файла : 1,34 Гбайт
Продолжительность : 43 м.
Режим общего битрейта : Переменный
Общий поток : 4400 Кбит/сек
Коллекция : Ведьмы Ист-Энда
Сезон : 2
: Ведьмы Ист-Энда, Сезон 2
/Исполнитель : Ведьмы Ист-Энда
Часть : 1
Часть/Положение : 2
Трек : Неуловимый зверь
Трек/Положение : 1
Исполнитель : Ведьмы Ист-Энда
Жанр : Sci-Fi & Fantasy
Тип содержимого : TV Show
Дата записи : 2014
Дата кодирования : UTC 2014-07-08 18:28:47
Дата пометки : UTC 2014-07-08 18:28:47
Программа кодирования : Yamb 2.1.0.0 [http://yamb.unite-video.com] / LostCoder
Правообладатель : LostFilm.TV (c)
Обложка : Yes
Примечание : Сериал рассказывает л ведьмах семейства Бошам. Их судьбы и судьбы жителей маленького городка оказываются переплетены между собой.
Part_ID : 201
Видео
Идентификатор : 1
Формат : AVC
Формат/Информация : Advanced Video Codec
Профиль формата : High@L3.1
Параметр CABAC формата : Нет
Параметр ReFrames формата : 2 кадра
Идентификатор кодека : avc1
Идентификатор кодека/Информация : Advanced Video Coding
Продолжительность : 43 м.
Битрейт : 4267 Кбит/сек
Номинальный битрейт : 4000 Кбит/сек
Максимальный битрейт : 13,1 Мбит/сек
Ширина : 1280 пикселей
Высота : 720 пикселей
Соотношение сторон : 16:9
Режим частоты кадров : Переменный
Частота кадров : 23,976 кадра/сек
Минимальная частота кадров : 23,974 кадра/сек
Максимальная частота кадров : 23,981 кадра/сек
Цветовое пространство : YUV
Субдискретизация насыщенности : 4:2:0
Битовая глубина : 8 бит
Тип развёртки : Прогрессивная
Бит/(Пиксели*Кадры) : 0.193
Размер потока : 1,30 Гбайт (97%)
Библиотека кодирования : x264 core 112 r1834 a51816a
Настройки программы : cabac=0 / ref=3 / deblock=1:0:0 / analyse=0x1:0x111 / me=hex / subme=7 / psy=1 / psy_rd=1.00:0.00 / mixed_ref=1 / me_range=16 / chroma_me=1 / trellis=1 / 8x8dct=0 / cqm=0 / deadzone=21,11 / fast_pskip=1 / chroma_qp_offset=-2 / threads=6 / sliced_threads=0 / nr=0 / decimate=1 / interlaced=0 / constrained_intra=0 / bframes=3 / b_pyramid=2 / b_adapt=1 / b_bias=0 / direct=1 / weightb=1 / open_gop=0 / weightp=2 / keyint=250 / keyint_min=25 / scenecut=40 / intra_refresh=0 / rc_lookahead=40 / rc=abr / mbtree=1 / bitrate=4000 / ratetol=1.0 / qcomp=0.60 / qpmin=0 / qpmax=51 / qpstep=4 / vbv_maxrate=5000 / vbv_bufsize=2000 / ip_ratio=1.40 / aq=1:1.00 / nal_hrd=none
Язык : English
Дата пометки : UTC 2014-07-08 18:31:02
Основные цвета : BT.709
Характеристики трансфера : BT.709
Коэффициенты матрицы : BT.709
Аудио
Идентификатор : 2
Формат : AAC
Формат/Информация : Advanced Audio Codec
Профиль формата : LC
Идентификатор кодека : 40
Продолжительность : 43 м.
Вид битрейта : Переменный
Битрейт : 128 Кбит/сек
Максимальный битрейт : 232 Кбит/сек
Каналы : 2 канала
Расположение каналов : Front: L R
Частота : 48,0 КГц
Метод сжатия : С потерями
Размер потока : 40,0 Мбайт (3%)
Дата кодирования : UTC 2014-07-08 18:30:59
Дата пометки : UTC 2014-07-08 18:31:02

Скриншоты

Раздача ведётся путём добавления новых серий

Раздача ведётся путём добавления новых серий; при каждом добавлении создаётся новый торрент. Чтобы начать докачку новой серии, пользователям необходимо сделать следующее:
(1) остановить скачивание,
(2) удалить старый торрент у себя из клиента (старые серии удалять не надо),
(3) скачать новый торрент и запустить его у себя в клиенте вместо старого, при этом указать клиенту путь в старую папку куда и должно происходить скачивание новых серий.
Ваш клиент при этом должен произвести хеширование (проверку) старой папки (если не производит сам - помогите ему сделать это), и будет докачивать только те серии которых у вас ещё нет. Старые серии при этом не удаляются, а продолжают раздаваться!
Eсли вы уже удалили старые серии, то предотвратить повторную закачку старых серий можно, отжав галочку в соответствующих местах при запуске нового торрента. По возможности, желательно не удалять старые серии как можно дольше чтобы релизёр не столько продолжал раздавать старые серии, а смог сконцентрироваться на новых.

_________________
[Торрент-статистика]
[Профиль]  [ЛС] 
Показать сообщения:    
Ответить на тему

Текущее время: Сегодня 15:59

Часовой пояс: GMT + 4



Вы не можете начинать темы
Вы не можете отвечать на сообщения
Вы не можете редактировать свои сообщения
Вы не можете удалять свои сообщения
Вы не можете голосовать в опросах
Вы не можете прикреплять файлы к сообщениям
Вы не можете скачивать файлы