Настоящая Кровь / True Blood / Сезон:1 /Серия 1-12 из 12(Майкл Леманн, Скотт Уинант, Даниэль Минахан)[2008 г., фэнтези, триллер, драма, мелодрама, детектив, BDRip 720p] MVO (FoxLife, ТВ3), DUB (TET), DVO (1001cinema), AVO (Квадрат Малевича)

Ответить на тему
 
Автор
Сообщение

awk05 ®

Пол:

Стаж: 6 лет 5 месяцев

Сообщений: 1347

Репутация: 275 [+] [-]

Откуда: Западная Украина Ривне

Пост 07-Июл-2014 20:57

[Цитировать] 

--Настоящая Кровь / True Blood
«You Know You're Hooked»--
Страна: США HBO
Год выхода: 2008
Жанр: фэнтези, триллер, драма, мелодрама, детектив
Сезон/Серия: Сезон:1 /Серия 1-12 из 12
Продолжительность: 12 х ~ 00:50:00
Перевод: профессиональный многоголосый закадровый (FoxLife, ТВ3), полное дублирование (TET - на украинском), любительский двухголосый закадровый (1001cinema) / Любительский (одноголосый) Квадрат Малевича (Brown)
Субтитры: отсутствуют--Режиссер: Майкл Леманн, Скотт Уинант, Даниэль Минахан--В ролях: Анна Пэкуин (Sookie Stackhouse), Стивен Мойер (Bill Compton), Александр Скарсгард (Eric Northman), Сэм Трэммелл (Sam Merlotte), Райан Квантен (Jason Stackhouse), Рутина Уэсли (Tara Thornton), Нелсан Эллис (Lafayette Reynolds), Дэнис О’Хэйр (Russell Edgington), Джим Пэррак (Hoyt Fortenberry), Дебора Энн Уолл (Jessica Hamby), Кристофер Бауэр (Andy Bellefleur), Кэрри Престон (Arlene Fowler), Тодд Лоу (Terry Bellefleur), ...--О фильме: Благодаря изобретению искусственной крови в Японии, вампиры за одну ночь превратились из монстров в обычных граждан. Несмотря на то, что официально вампиры отказались от потребления человеческой крови, многие из обычных людей по-прежнему относятся к ним враждебно, особенно в таком заштатном городишке, как Бон-Там (Бон-Тэмз), штат Луизиана.
Однако официантка одного из местных баров Суки Стакхаус не разделяет общих настроений по отношению к вампирам. Из-за своих телепатических способностей она сама с детства чувствовала себя изгоем. Потому когда однажды вечером в бар «Merlotte’s», где работает Суки, заходит 173-летний вампир Билл Комптон, у них завязываются отношения, но им придётся через многое пройти, чтобы заслужить уважение и признание остальных. К тому же, в городке одно за другим начинают происходить жестокие убийства, и горожане часто сваливают всю вину именно на Суки и Билла.
Сериал выстроен так, что каждый сезон сюжет, независимый и мало связанный с предыдущим сезоном, выстроен вокруг одной центральной истории и нескольких дополнительных историй второстепенных героев. Центральной темой первого сезона был поиск маньяка, чьи действия многие пытались выдать за действия вампиров и, в частности, Уильяма Комптона.--Качество видео: BDRip 720p
Формат видео: MKV
Видео кодек: AVC (High@L4.1)
Аудио кодек: AC-3, DTS, AAC LC,
Видео: AVC, 1280x720 (16:9), 23.976 fps, 7 000 Kbps (0.317 bit/pixel)
Аудио #1: AC-3, 48.0 KHz, 2 ch, 192 Kbps, CBR, 16 бит [UA] TET
Аудио #2: AC-3, 48.0 KHz, 2 ch, 192 Kbps, CBR, 16 бит [RUS] ТВ3
Аудио #3: AC-3, 48.0 KHz, 2 ch, 192 Kbps, CBR, 16 бит [RUS] FoxLife
Аудио #4: DTS, 48.0 KHz, 6 ch, 1 510 Kbps, CBR, 24 бит [RUS] 1001cinema
Аудио #5: DTS, 48.0 KHz, 6 ch, 1 510 Kbps, CBR, 24 бит [RUS] Квадрат Малевича (Brown)
Аудио #6: DTS, 48.0 KHz, 6 ch, 1 510 Kbps, CBR, 24 бит [ENG]
Аудио #7: AAC LC, 48.0 KHz, 1 ch [ENG]
--

Список серий

01 «Pilot» / «Strange Love» «Пилотный эпизод» / «Странная любовь»
02 «The First Taste» . «Первый вкус»
03 «Mine» / «Моя»)
04 «Escape from Dragon House» / «Побег из Дома Дракона»
05 «Sparks fly out» / «Искры летят»)
06 «Cold Ground» / «Холодная земля»
07 «Burning House of Love» / «Пылающая обитель любви»
08 «The Fourth Man in the Fire» / «Четвертый сгоревший в огне»
09 «Plaisir d’Amour» / «Удовольствие от любви»
10 «I Don’t Wanna Know» / «Я не хочу знать»
11 «To Love Is to Burry» / «Любить - значит похоронить»
12 «You’ll Be the Death of Me» / «Ты станешь моей погибелью»

Знаете ли Вы, что...

* Сериал снят по мотивам серии романов Шарлин Харрис «Вампирские тайны» (The Southern Vampire Mysteries, издаются с 2001 года).
* В восьмой серии 1-го сезона вампир Эдди говорит Лафайету: «Я всегда с нетерпением жду вечера понедельника. Сначала «Герои», потом приходишь ты». Это отсылка к американскому телесериалу «Герои».
* Йен Сомерхолдер пробовался в «Настоящую кровь» на роль Джейсона Стэкхауза.
* В первой серии 1-го сезона, когда Сьюки приходит домой с работы, её бабушка читает книгу под названием «Last Scene Alive». Её написала Шарлин Харрис, которая и является автором серии книг про Сьюки Стэкхауз, положенных в основу сериала.
* Во второй серии 1-го сезона в доме у Тары на столе можно заметить газету с заголовком «Анджелина усыновляет ребенка-вампира» (Angelina Adopts Vampire Baby). Это намек на актрису Анджелину Джоли, которая известна своей филантропической деятельностью.
* В четвертой серии 1-го сезона Эрик, подзывая Билла и Сьюки, обращается к Пэм на шведском языке. Он произносит фразу «Vår lilla djurpark börjar växa till sig», что означает «Наш маленький зоопарк расширяется». А она отвечает «Jag vet», что переводится как «Я знаю».
* В первой серии 3-го сезона Сьюки приходит к Эрику, чтобы сообщить о пропаже Билла, и обнаруживает его в подвале во время секса с новой танцовщицей. Эрик представляет её как Эветта из Эстонии, при этом Эветта говорит «Здравствуйте!» на чистом русском языке, а Эрик отвечает ей на русском «Жди здесь!»

Скриншоты

Тех. данные (MI)

General
Unique ID : 246720890520388874816634257473064019833 (0xB99CB710868BBF95899011C1131E2779)
Complete name : G:\тест\True.Blood.Season.S01.BluRay.720p\True.Blood.S01E01.720p.BluRay.Ukr.4xRus.Eng.0day.mkv
Format : Matroska
Format version : Version 2
File size : 4.97 GiB
Duration : 58mn 32s
Overall bit rate : 12.2 Mbps
Encoded date : UTC 2011-04-22 14:43:01
Writing application : mkvmerge v4.5.0 ('Speed of Light') сборка от Feb 1 2011 02:10:32
Writing library : libebml v1.2.0 + libmatroska v1.1.0
Video
ID : 1
Format : AVC
Format/Info : Advanced Video Codec
Format profile : High@L4.1
Format settings, CABAC : Yes
Format settings, ReFrames : 5 frames
Codec ID : V_MPEG4/ISO/AVC
Duration : 58mn 32s
Nominal bit rate : 7 000 Kbps
Width : 1 280 pixels
Height : 720 pixels
Display aspect ratio : 16:9
Frame rate mode : Constant
Frame rate : 23.976 fps
Color space : YUV
Chroma subsampling : 4:2:0
Bit depth : 8 bits
Scan type : Progressive
Bits/(Pixel*Frame) : 0.317
Title : True Blood | Season 1 | Episode 1
Writing library : x264 core 67 r1148M 400740b
Encoding settings : cabac=1 / ref=5 / deblock=1:-3:-3 / analyse=0x3:0x113 / me=tesa / subme=9 / psy_rd=1.0:0.0 / mixed_ref=1 / me_range=16 / chroma_me=1 / trellis=2 / 8x8dct=1 / cqm=0 / deadzone=21,11 / chroma_qp_offset=-2 / threads=6 / nr=0 / decimate=0 / mbaff=0 / bframes=5 / b_pyramid=1 / b_adapt=2 / b_bias=0 / direct=3 / wpredb=1 / keyint=250 / keyint_min=25 / scenecut=40 / rc=2pass / bitrate=7000 / ratetol=1.0 / qcomp=0.60 / qpmin=10 / qpmax=51 / qpstep=4 / cplxblur=20.0 / qblur=0.5 / ip_ratio=1.40 / pb_ratio=1.30 / aq=1:1.00
Language : English
Default : Yes
Forced : No
Audio #1
ID : 2
Format : AC-3
Format/Info : Audio Coding 3
Mode extension : CM (complete main)
Format settings, Endianness : Big
Codec ID : A_AC3
Duration : 58mn 32s
Bit rate mode : Constant
Bit rate : 192 Kbps
Channel(s) : 2 channels
Channel positions : Front: L R
Sampling rate : 48.0 KHz
Bit depth : 16 bits
Compression mode : Lossy
Stream size : 80.4 MiB (2%)
Title : ТЕТ @ DD 2.0
Language : Ukrainian
Default : Yes
Forced : No
Audio #2
ID : 3
Format : AC-3
Format/Info : Audio Coding 3
Mode extension : CM (complete main)
Format settings, Endianness : Big
Codec ID : A_AC3
Duration : 58mn 32s
Bit rate mode : Constant
Bit rate : 192 Kbps
Channel(s) : 2 channels
Channel positions : Front: L R
Sampling rate : 48.0 KHz
Bit depth : 16 bits
Compression mode : Lossy
Stream size : 80.4 MiB (2%)
Title : TV3 @ DD 2.0
Language : Russian
Default : No
Forced : No
Audio #3
ID : 4
Format : AC-3
Format/Info : Audio Coding 3
Mode extension : CM (complete main)
Format settings, Endianness : Big
Codec ID : A_AC3
Duration : 58mn 32s
Bit rate mode : Constant
Bit rate : 192 Kbps
Channel(s) : 2 channels
Channel positions : Front: L R
Sampling rate : 48.0 KHz
Bit depth : 16 bits
Compression mode : Lossy
Stream size : 80.4 MiB (2%)
Title : FOX Crime @ DD 2.0
Language : Russian
Default : No
Forced : No
Audio #4
ID : 5
Format : DTS
Format/Info : Digital Theater Systems
Mode : 16
Format settings, Endianness : Big
Codec ID : A_DTS
Duration : 58mn 32s
Bit rate mode : Constant
Bit rate : 1 510 Kbps
Channel(s) : 6 channels
Channel positions : Front: L C R, Side: L R, LFE
Sampling rate : 48.0 KHz
Bit depth : 24 bits
Compression mode : Lossy
Delay relative to video : 11ms
Stream size : 632 MiB (12%)
Title : 1001 cinema @ DTS 5.1
Language : Russian
Default : No
Forced : No
Audio #5
ID : 6
Format : DTS
Format/Info : Digital Theater Systems
Mode : 16
Format settings, Endianness : Big
Codec ID : A_DTS
Duration : 58mn 32s
Bit rate mode : Constant
Bit rate : 1 510 Kbps
Channel(s) : 6 channels
Channel positions : Front: L C R, Side: L R, LFE
Sampling rate : 48.0 KHz
Bit depth : 24 bits
Compression mode : Lossy
Delay relative to video : 11ms
Stream size : 632 MiB (12%)
Title : Kvadrat Malevicha (Brown) @ DTS 5.1
Language : Russian
Default : No
Forced : No
Audio #6
ID : 7
Format : DTS
Format/Info : Digital Theater Systems
Mode : 16
Format settings, Endianness : Big
Codec ID : A_DTS
Duration : 58mn 32s
Bit rate mode : Constant
Bit rate : 1 509 Kbps
Channel(s) : 6 channels
Channel positions : Front: L C R, Side: L R, LFE
Sampling rate : 48.0 KHz
Bit depth : 24 bits
Compression mode : Lossy
Delay relative to video : 11ms
Stream size : 632 MiB (12%)
Title : Original @ DTS 5.1
Language : English
Default : No
Forced : No
Audio #7
ID : 8
Format : AAC
Format/Info : Advanced Audio Codec
Format profile : LC
Codec ID : A_AAC
Duration : 58mn 32s
Channel(s) : 1 channel
Channel positions : Front: C
Sampling rate : 48.0 KHz
Compression mode : Lossy
Title : Commentary
Language : English
Default : No
Forced : No

_________________
[Торрент-статистика]
[Профиль]  [ЛС] 
Показать сообщения:    
Ответить на тему

Текущее время: Сегодня 09:05

Часовой пояс: GMT + 4



Вы не можете начинать темы
Вы не можете отвечать на сообщения
Вы не можете редактировать свои сообщения
Вы не можете удалять свои сообщения
Вы не можете голосовать в опросах
Вы не можете прикреплять файлы к сообщениям
Вы не можете скачивать файлы