Волчонок / Оборотень / Teen Wolf / Сезон: 4 / Серии: 1-12 из 12 (Рассел Малкэй) [2014, триллер, драма, комедия, WEB-DL 1080p] DVO (Alternative Production) + Original

Ответить на тему
 
Автор
Сообщение

awk05 ®

Пол:

Стаж: 6 лет 5 месяцев

Сообщений: 1347

Репутация: 275 [+] [-]

Откуда: Западная Украина Ривне

Пост 01-Июл-2014 16:33

[Цитировать] 

--Волчонок / Teen Wolf-- Год выпуска: 2014
Страна: США
Жанр: ужасы, триллер, драма, мелодрама, комедия
Сезон/Серия: Сезон: 4 /Серия 1-12 из 12
Продолжительность: 12 x 00:40:00 мин
Перевод: Любительский (двухголосый закадровый) Alternative Production
Субтитры: отсутствуют--Режиссер: Рассел Малкэй--В ролях: Тайлер Пози (Скот МакКол), Кристал Рид (Элисон Арджент), Дилан О’Брайэн (Стайлс), Колтон Хэйнс (Джексон), Холлэнд Роден (Лидия Мартин), Линден Эшби (шерифф Стилински), Тайлер Хёхлин (Дерек Хейл), ДжейАр Борн (Арджент), Мелисса Понцио (Мелисса МакКол)--Описание: Скотт был просто обычным парнем, пока один укус не изменил его жизнь навсегда. Теперь он изо всех сил пытается понять, кто он и кем он может стать. В нем больше волка чем человека - или все совсем наоборот? Как бы то ни было, легко не будет. Скотт попытается управлять своими наклонностями, но больше всего он боится, что эти его новые наклонности, в конце концов, начнут управлять им. "Волчонок" - история Скотта, то как он пытается идти по узкой границе между тем, чего он хочет и чего он не может не хотеть. Станет ли случившееся с ним благословением? Или это будет проклятие? И как это отразится на его отношениях с Аллисон - девушкой, которую он так любит? Только время покажет, должен ли он принять свои новообретенные способности, или бояться их.--Качество видео: WEB-DL 1080p
Формат видео: MKV
Видео кодек: AVC (High@L4.0)
Аудио кодек: AC-3
Видео: AVC, 1916x1072 (16:9), 23.976 fps, 4 692 Kbps, 0.095 Bit/Pixel
Аудио 1: AC-3, 48.0 KHz, 6 ch, 384 Kbps, CBR, 16 бит [RUS]
Аудио 2: AC-3, 48.0 KHz, 6 ch, 384 Kbps, CBR, 16 бит [ENG] -- --

Тех. данные (MI)

General
Unique ID : 253987109648344645706382239948107570082 (0xBF142353B4E2BAC1B8D024C988D25BA2)
Format : Matroska
Format version : Version 4 / Version 2
File size : 1.64 GiB
Duration : 42mn 6s
Overall bit rate : 5 571 Kbps
Encoded date : UTC 2014-06-25 06:51:56
Writing application : mkvmerge v6.4.1 ('Omega Point') built on Sep 16 2013 22:05:10
Writing library : libebml v1.3.0 + libmatroska v1.4.1
Attachment : Yes
Video
ID : 1
Format : AVC
Format/Info : Advanced Video Codec
Format profile : High@L4.0
Format settings, CABAC : Yes
Format settings, ReFrames : 4 frames
Codec ID : V_MPEG4/ISO/AVC
Duration : 42mn 6s
Bit rate : 4 692 Kbps
Width : 1 916 pixels
Height : 1 072 pixels
Display aspect ratio : 16:9
Frame rate mode : Constant
Frame rate : 23.976 fps
Color space : YUV
Chroma subsampling : 4:2:0
Bit depth : 8 bits
Scan type : Progressive
Bits/(Pixel*Frame) : 0.095
Stream size : 1.38 GiB (84%)
Language : English
Default : Yes
Forced : No
Color primaries : BT.709
Transfer characteristics : BT.709
Matrix coefficients : BT.709
Audio #1
ID : 2
Format : AC-3
Format/Info : Audio Coding 3
Mode extension : CM (complete main)
Format settings, Endianness : Big
Codec ID : A_AC3
Duration : 42mn 6s
Bit rate mode : Constant
Bit rate : 384 Kbps
Channel count : 6 channels
Channel positions : Front: L C R, Side: L R, LFE
Sampling rate : 48.0 KHz
Bit depth : 16 bits
Compression mode : Lossy
Stream size : 116 MiB (7%)
Language : Russian
Default : Yes
Forced : No
Audio #2
ID : 3
Format : AC-3
Format/Info : Audio Coding 3
Mode extension : CM (complete main)
Format settings, Endianness : Big
Codec ID : A_AC3
Duration : 42mn 6s
Bit rate mode : Constant
Bit rate : 384 Kbps
Channel count : 6 channels
Channel positions : Front: L C R, Side: L R, LFE
Sampling rate : 48.0 KHz
Bit depth : 16 bits
Compression mode : Lossy
Stream size : 116 MiB (7%)
Language : English
Default : No
Forced : No

Скриншоты


_________________
[Торрент-статистика]
[Профиль]  [ЛС] 
Показать сообщения:    
Ответить на тему

Текущее время: Сегодня 09:07

Часовой пояс: GMT + 4



Вы не можете начинать темы
Вы не можете отвечать на сообщения
Вы не можете редактировать свои сообщения
Вы не можете удалять свои сообщения
Вы не можете голосовать в опросах
Вы не можете прикреплять файлы к сообщениям
Вы не можете скачивать файлы