Оранжевый - хит сезона / Оранжевый — новый черный / Orange Is the New Black / Сезон: 1 / Серии: 1-13 из 13 (Майкл Трим, Эндрю МакКарти, Мэттью Пенн) [2013, драма, комедия, криминал, WEBRip 720p] MVO (NewStudio)

Ответить на тему
 
Автор
Сообщение

awk05 ®

Пол:

Стаж: 6 лет 5 месяцев

Сообщений: 1347

Репутация: 275 [+] [-]

Откуда: Западная Украина Ривне

Пост 25-Июн-2014 02:44

[Цитировать] 

--Оранжевый - хит сезона / Оранжевый — новый черный
/ Orange Is the New Black
--
Год выпуска: 2013
Страна: США, Netflix
Жанр: драма, комедия, криминал
Сезон/Серия: Сезон:1 /Серия 1-13 из 13
Продолжительность: 13 х ~00:52:00
Перевод: Профессиональный (многоголосый закадровый)
Субтитры: отсутствуют--Режиссёр: Майкл Трим, Эндрю МакКарти, Фил Абрахам--В ролях: Тейлор Шиллинг, Майкл Харни, Кейт Малгрю, Наташа Лионн, Джейсон Биггз, Даниэль Брукс, Узо Адуба, Самира Уайли, Даша Поланко, Селенис Лейва и др.--Описание: Пайпер Чепмен — обычная жительница Коннектикута. Она любит свою благополучную жизнь и все её приятные мелочи. Душ по утрам, красивый завтрак, занятия любовью. Но случается так, что благодаря своему мимолетному увлечению крупным наркоторговцем, Пайпер оказывается заключенной в тюрьму на долгие пятнадцать месяцев. Отныне ей необходимо не только привыкнуть к новому окружению, но и просто — выжить.--Качество видео: WEBRip 720p
Формат видео: MKV
Видео кодек: AVC (High@L3.1)
Аудио кодек: AC-3, AAC
Видео: AVC, 1280x720 (16:9), 29.970 fps, ~2000 kbps, ~0.067 bit/pixel
1 серия:
Аудио 1: AC-3, 48.0 KHz, 6 ch, 384 Kbps, CBR, 16 бит [RUS]
Аудио 2: AAC, 48.0 KHz, 2 ch, 192 Kbps, CBR , 16 бит [ENG]
2-13 серии:
Аудио 1: AC-3, 48.0 KHz, 2 ch, 192 Kbps, CBR, 16 бит [RUS]
Аудио 2: AAC, 48.0 KHz, 2 ch, 192 Kbps, CBR , 16 бит [ENG] --

Знаете ли Вы, что...

В сериале присутствует отсылка к серии фильмов «Американский пирог». Когда Ларри (Джейсон Биггз) сокрушается о том, что рассказал все свои тайны, он упомянул о «неудаче с веб-камерой» (Американский пирог) и о «бритье яиц» (Американский пирог 3: Свадьба).

Список серий

01. I Wasn't Ready / Я была не готова
02. Tit Punch / Прямой в сиську
03. Lesbian Request Denied / В просьбе о лесбиянстве отказано
04. Imaginary Enemies / Воображаемые враги
05. The Chickening / Оцыпленение
06. WAC Pack / Женсовет
07. Blood Donut / Кровавый пончик
08. Moscow Mule / Московская ослиха
09. Fucksgiving / День благохренения
10. Bora Bora Bora / Бора Бора Бора
11. Tall Men with Feelings / Высокие мужчины с душой
12. Fool Me Once / Дважды на грабли
13. Can't Fix Crazy / Безумие не излечимо

Тех. данные (MI)

Тех. данные (MI) 1 серия

Общее
Уникальный идентификатор : 214088470970244663673076522828030832238 (0xA10FF0901C8C1062959D7EFFF0406E6E)
Полное имя : E:\тест\Orange.Is.the.New.Black.s01.WEB.720p.NewStudio.TV\Orange.Is.the.New.Black.s01e01.WEB.720p.NewStudio.TV.mkv
Формат : Matroska
Версия формата : Version 2
Размер файла : 905 Мбайт
Продолжительность : 51 м.
Общий поток : 2477 Кбит/сек
Название фильма : Orange.Is.The.New.Black.S01E01.720p.WEBRip.AAC2.0.H.264-Abjex
Дата кодирования : UTC 2013-07-16 16:35:00
Программа кодирования : mkvmerge v2.9.9 ('Tutu') built on Nov 25 2009 21:13:32
Библиотека кодирования : libebml v0.7.9 + libmatroska v0.8.1
Видео
Идентификатор : 1
Формат : AVC
Формат/Информация : Advanced Video Codec
Профиль формата : High@L3.1
Параметр CABAC формата : Да
Параметр ReFrames формата : 4 кадра
Идентификатор кодека : V_MPEG4/ISO/AVC
Продолжительность : 51 м.
Ширина : 1280 пикселей
Высота : 720 пикселей
Соотношение сторон : 16:9
Режим частоты кадров : Постоянный
Частота кадров : 29,970 кадров/сек
Цветовое пространство : YUV
Субдискретизация насыщенности : 4:2:0
Битовая глубина : 8 бит
Тип развёртки : Прогрессивная
Заголовок : DDLValley.eu
Библиотека кодирования : x264 core 130 r2273 b3065e6
Настройки программы : cabac=1 / ref=3 / deblock=1:-1:-1 / analyse=0x3:0x113 / me=hex / subme=7 / psy=1 / psy_rd=1.00:0.15 / mixed_ref=1 / me_range=16 / chroma_me=1 / trellis=1 / 8x8dct=1 / cqm=0 / deadzone=21,11 / fast_pskip=1 / chroma_qp_offset=-3 / threads=12 / lookahead_threads=2 / sliced_threads=0 / nr=0 / decimate=1 / interlaced=0 / bluray_compat=0 / constrained_intra=0 / bframes=3 / b_pyramid=2 / b_adapt=1 / b_bias=0 / direct=1 / weightb=1 / open_gop=0 / weightp=2 / keyint=300 / keyint_min=30 / scenecut=40 / intra_refresh=0 / rc_lookahead=40 / rc=crf / mbtree=1 / crf=20.0 / qcomp=0.60 / qpmin=0 / qpmax=69 / qpstep=4 / ip_ratio=1.40 / aq=1:1.00
Язык : English
Default : Нет
Forced : Нет
Основные цвета : BT.709
Характеристики трансфера : BT.709
Коэффициенты матрицы : BT.709
Аудио #1
Идентификатор : 2
Формат : AC-3
Формат/Информация : Audio Coding 3
Расширение режима : CM (complete main)
Параметр Endianness формата : Big
Идентификатор кодека : A_AC3
Продолжительность : 51 м.
Вид битрейта : Постоянный
Битрейт : 384 Кбит/сек
Каналы : 6 каналов
Расположение каналов : Front: L C R, Side: L R, LFE
Частота : 48,0 КГц
Битовая глубина : 16 бит
Метод сжатия : С потерями
Размер потока : 140 Мбайт (16%)
Язык : Russian
Default : Да
Forced : Да
Аудио #2
Идентификатор : 3
Формат : AAC
Формат/Информация : Advanced Audio Codec
Профиль формата : LC
Идентификатор кодека : A_AAC
Продолжительность : 51 м.
Каналы : 2 канала
Расположение каналов : Front: L R
Частота : 48,0 КГц
Метод сжатия : С потерями
Заголовок : DDLValley.eu
Язык : English
Default : Нет
Forced : Нет

Тех. данные (MI) 2-13 серии

Общее
Уникальный идентификатор : 210833554185098512547356664181771118913 (0x9E9D10C67C99BD389C88C05EB73EA941)
Полное имя : E:\тест\Orange.Is.the.New.Black.s01.WEB.720p.NewStudio.TV\Orange.Is.the.New.Black.s01e02.WEB.720p.NewStudio.TV.mkv
Формат : Matroska
Версия формата : Version 2
Размер файла : 894 Мбайт
Продолжительность : 51 м.
Общий поток : 2414 Кбит/сек
Название фильма : Orange.Is.The.New.Black.S01E02.720p.WEBRip.AAC2.0.H.264-Abjex
Дата кодирования : UTC 2013-07-20 11:42:35
Программа кодирования : mkvmerge v2.9.9 ('Tutu') built on Nov 25 2009 21:13:32
Библиотека кодирования : libebml v0.7.9 + libmatroska v0.8.1
Видео
Идентификатор : 1
Формат : AVC
Формат/Информация : Advanced Video Codec
Профиль формата : High@L3.1
Параметр CABAC формата : Да
Параметр ReFrames формата : 4 кадра
Идентификатор кодека : V_MPEG4/ISO/AVC
Продолжительность : 51 м.
Ширина : 1280 пикселей
Высота : 720 пикселей
Соотношение сторон : 16:9
Режим частоты кадров : Постоянный
Частота кадров : 29,970 кадров/сек
Цветовое пространство : YUV
Субдискретизация насыщенности : 4:2:0
Битовая глубина : 8 бит
Тип развёртки : Прогрессивная
Заголовок : DDLValley.eu
Библиотека кодирования : x264 core 130 r2273 b3065e6
Настройки программы : cabac=1 / ref=3 / deblock=1:-1:-1 / analyse=0x3:0x113 / me=hex / subme=7 / psy=1 / psy_rd=1.00:0.15 / mixed_ref=1 / me_range=16 / chroma_me=1 / trellis=1 / 8x8dct=1 / cqm=0 / deadzone=21,11 / fast_pskip=1 / chroma_qp_offset=-3 / threads=12 / lookahead_threads=2 / sliced_threads=0 / nr=0 / decimate=1 / interlaced=0 / bluray_compat=0 / constrained_intra=0 / bframes=3 / b_pyramid=2 / b_adapt=1 / b_bias=0 / direct=1 / weightb=1 / open_gop=0 / weightp=2 / keyint=300 / keyint_min=30 / scenecut=40 / intra_refresh=0 / rc_lookahead=40 / rc=crf / mbtree=1 / crf=20.0 / qcomp=0.60 / qpmin=0 / qpmax=69 / qpstep=4 / ip_ratio=1.40 / aq=1:1.00
Язык : English
Default : Нет
Forced : Нет
Основные цвета : BT.709
Характеристики трансфера : BT.709
Коэффициенты матрицы : BT.709
Аудио #1
Идентификатор : 2
Формат : AC-3
Формат/Информация : Audio Coding 3
Расширение режима : CM (complete main)
Параметр Endianness формата : Big
Идентификатор кодека : A_AC3
Продолжительность : 51 м.
Вид битрейта : Постоянный
Битрейт : 192 Кбит/сек
Каналы : 2 канала
Расположение каналов : Front: L R
Частота : 48,0 КГц
Битовая глубина : 16 бит
Метод сжатия : С потерями
Размер потока : 71,1 Мбайт (8%)
Язык : Russian
Default : Да
Forced : Да
Аудио #2
Идентификатор : 3
Формат : AAC
Формат/Информация : Advanced Audio Codec
Профиль формата : LC
Идентификатор кодека : A_AAC
Продолжительность : 51 м.
Каналы : 2 канала
Расположение каналов : Front: L R
Частота : 48,0 КГц
Метод сжатия : С потерями
Заголовок : DDLValley.eu
Язык : English
Default : Нет
Forced : Нет

Скриншоты


_________________
[Торрент-статистика]
[Профиль]  [ЛС] 
Показать сообщения:    
Ответить на тему

Текущее время: Сегодня 10:19

Часовой пояс: GMT + 4



Вы не можете начинать темы
Вы не можете отвечать на сообщения
Вы не можете редактировать свои сообщения
Вы не можете удалять свои сообщения
Вы не можете голосовать в опросах
Вы не можете прикреплять файлы к сообщениям
Вы не можете скачивать файлы