Вызов / Непокорная Земля / Defiance / Сезон: 2 / Серии: 1-13 (13) (Майкл Нанкин, Аллен Крокер, Энди Волк) [2014 г., фантастика, боевик, драма, WEB-DL 720p ] MVO "LostFilm" (Обновляемая)

Ответить на тему
 
Автор
Сообщение

awk05 ®

Пол:

Стаж: 6 лет 5 месяцев

Сообщений: 1347

Репутация: 275 [+] [-]

Откуда: Западная Украина Ривне

Пост 24-Июн-2014 17:41

[Цитировать] 

--Вызов / Непокорная Земля/ Defiance-- Год выпуска: 2014
Страна: США
Жанр: фантастика, боевик, драма
Сезон/Серия: Сезон: 2 /Серия 1-13 из 13
Продолжительность: 13 х ~ 00:43:00
Перевод: Профессиональный (многоголосый, закадровый) "LostFilm".
Субтитры: отсутствуют--Режиссер: Майкл Нанкин, Аллен Крокер, Энди Волк--В ролях: Грант Боулер (Chief Lawkeeper Joshua Nolan), Джули Бенц (Mayor Amanda Rosewater), Стефани Леонидас (Irisa), Тони Карран (Datak Tarr), Джейми Мюррэй (Stahma Tarr), Грэм Грин (Rafe McCawley), Миа Киршнер (Kenya Rosewater), Дьюшэйн Уильямс (Tommy LaSalle), Николь Муньос (Christie McCawley), Джастин Рэйн (Quentin McCawley), ...--Описание: Десять Землю сотрясали Бледные войны - небывалый доселе конфликт между людьми и инопланетянами, явившимися на "поселение". Система бинарных звезд чужаков эволюционировала в сверхновую, и пришельцы вынуждены были покинуть свой мир. Разгоревшаяся бойня привела к катастрофическим последствиям. Потери с обеих сторон были колоссальными.
Группа солдат земной армии понимает всю бессмысленность взаимного истребления и восстает против собственных командиров. Цепь событий влечет за собой перемирие между враждующими сторонами.
Спустя 15 действие сериала перемещается в Сент-Луис, куда экс-солдат Джозеф Нолан приезжает вместе с Айриссой - приемной дочерью-инопланетянкой. Они селятся в городке Вызов, заселенном шестью расами с разных уголков Галактики. Случай распорядился так, что Джозеф вынужден стать местным шерифом и взять разношерстных жителей города под свою опеку. Джозефу предстоит сразиться с неведомыми силами, желающими стереть Вызов с лица Земли..--Качество видео: WEB-DL 720p
Формат видео: MKV
Видео кодек: AVC (High@L3.1)
Аудио кодек: AAC LC
Видео: AVC, 1280x720 (16:9), 23.976 fps, 4 000 Kbps (0.181 bit/pixel)
Аудио: AAC LC, 48.0 KHz, 2 ch, 128 Kbps, VBR, 16 бит [RUS] -- --

Список серий

01. Всё не слава Богу (The Opposite of Hallelujah)
02. В моей тайной жизни (In My Secret Life)
03. Верёвка и топор (The Cord and the Ax)
04. Рабочие лошадки (Beasts of Burden)
05. Навреди (Put the Damage On)
06. Дело рук этой женщины (This Woman's Work)
07. Видели бы вы её моими глазами (If You Could See Her Through My
08. Ковыляя в Вифлеем (Slouching Towards Bethlehem)
09. Нарисовано по памяти (Painted from Memory)
10. Дно мира (Bottom of the World)
11. Сломанная кукла (Doll Parts)
12. Всё пройдёт (All Things Must Pass)
13. Я почти молилась (I Almost Prayed)

Скриншоты

MI

Общее
Полное имя : E:\Сериалы новые\Defiance\Defiance.S02E01.720p.WEB.rus.LostFilm.TV.mp4
Формат : MPEG-4
Профиль формата : Base Media
Идентификатор кодека : isom
Размер файла : 1,29 Гбайт
Продолжительность : 43 м.
Режим общего битрейта : Переменный
Общий поток : 4271 Кбит/сек
Коллекция : Непокорная Земля
Сезон : 2
: Непокорная Земля, Сезон 1
Альбом/Исполнитель : Непокорная Земля
Часть : 1
Часть/Положение : 2
Трек : Всё не слава богу
Трек/Положение : 1
Исполнитель : Непокорная Земля
Жанр : Sci-Fi & Fantasy
Тип содержимого : TV Show
Дата записи : 2014
Дата кодирования : UTC 2014-06-21 18:50:06
Дата пометки : UTC 2014-06-21 18:50:06
Программа кодирования : Yamb 2.1.0.0 LostCoder
Правообладатель : LostFilm.TV (c)
Обложка : Yes
Примечание : Сериал описывает ближайшее будущее, когда инопланетная раса вотане приходят на Землю в поисках нового дома после того, как их звездная система была разрушена при столкновении двух звезд. Вотане считали Землю не обитаемой...
Part_ID : 201
rati : (Binary)
Видео
Идентификатор : 1
Формат : AVC
Формат/Информация : Advanced Video Codec
Профиль формата : High@L3.1
Параметр CABAC формата : Нет
Параметр ReFrames формата : 2 кадра
Идентификатор кодека : avc1
Идентификатор кодека/Информация : Advanced Video Coding
Продолжительность : 43 м.
Битрейт : 4000 Кбит/сек
Максимальный битрейт : 13,6 Мбит/сек
Ширина : 1280 пикселей
Высота : 720 пикселей
Соотношение сторон : 16:9
Режим частоты кадров : Переменный
Частота кадров : 23,976 кадра/сек
Минимальная частота кадров : 23,974 кадра/сек
Максимальная частота кадров : 23,981 кадра/сек
Цветовое пространство : YUV
Субдискретизация насыщенности : 4:2:0
Битовая глубина : 8 бит
Тип развёртки : Прогрессивная
Бит/(Пиксели*Кадры) : 0.181
Размер потока : 1,25 Гбайт (97%)
Библиотека кодирования : x264 core 112 r1834 a51816a
Настройки программы : cabac=0 / ref=3 / deblock=1:0:0 / analyse=0x1:0x111 / me=hex / subme=7 / psy=1 / psy_rd=1.00:0.00 / mixed_ref=1 / me_range=16 / chroma_me=1 / trellis=1 / 8x8dct=0 / cqm=0 / deadzone=21,11 / fast_pskip=1 / chroma_qp_offset=-2 / threads=6 / sliced_threads=0 / nr=0 / decimate=1 / interlaced=0 / constrained_intra=0 / bframes=3 / b_pyramid=2 / b_adapt=1 / b_bias=0 / direct=1 / weightb=1 / open_gop=0 / weightp=2 / keyint=250 / keyint_min=25 / scenecut=40 / intra_refresh=0 / rc_lookahead=40 / rc=abr / mbtree=1 / bitrate=4000 / ratetol=1.0 / qcomp=0.60 / qpmin=0 / qpmax=51 / qpstep=4 / vbv_maxrate=5000 / vbv_bufsize=2000 / ip_ratio=1.40 / aq=1:1.00 / nal_hrd=none
Язык : English
Дата пометки : UTC 2014-06-21 18:50:57
Основные цвета : BT.709
Характеристики трансфера : BT.709
Коэффициенты матрицы : BT.709
Аудио
Идентификатор : 2
Формат : AAC
Формат/Информация : Advanced Audio Codec
Профиль формата : LC
Идентификатор кодека : 40
Продолжительность : 43 м.
Вид битрейта : Переменный
Битрейт : 128 Кбит/сек
Максимальный битрейт : 191 Кбит/сек
Каналы : 2 канала
Расположение каналов : Front: L R
Частота : 48,0 КГц
Метод сжатия : С потерями
Размер потока : 39,5 Мбайт (3%)
Дата кодирования : UTC 2014-06-21 18:50:55
Дата пометки : UTC 2014-06-21 18:50:57

Раздача ведётся путём добавления новых серий

Раздача ведётся путём добавления новых серий; при каждом добавлении создаётся новый торрент. Чтобы начать докачку новой серии, пользователям необходимо сделать следующее:
(1) остановить скачивание,
(2) удалить старый торрент у себя из клиента (старые серии удалять не надо),
(3) скачать новый торрент и запустить его у себя в клиенте вместо старого, при этом указать клиенту путь в старую папку куда и должно происходить скачивание новых серий.
Ваш клиент при этом должен произвести хеширование (проверку) старой папки (если не производит сам - помогите ему сделать это), и будет докачивать только те серии которых у вас ещё нет. Старые серии при этом не удаляются, а продолжают раздаваться!
Eсли вы уже удалили старые серии, то предотвратить повторную закачку старых серий можно, отжав галочку в соответствующих местах при запуске нового торрента. По возможности, желательно не удалять старые серии как можно дольше чтобы релизёр не столько продолжал раздавать старые серии, а смог сконцентрироваться на новых.

_________________
[Торрент-статистика]
[Профиль]  [ЛС] 
Показать сообщения:    
Ответить на тему

Текущее время: Сегодня 09:42

Часовой пояс: GMT + 4



Вы не можете начинать темы
Вы не можете отвечать на сообщения
Вы не можете редактировать свои сообщения
Вы не можете удалять свои сообщения
Вы не можете голосовать в опросах
Вы не можете прикреплять файлы к сообщениям
Вы не можете скачивать файлы