Adele 19 - 2008, (Indiepop, Jazz, Soul, Female Vocal), FLAC (tracks), lossless

Ответить на тему
 
Автор
Сообщение

luis5 ®

Пол:

Стаж: 3 года 7 месяцев

Сообщений: 125

Репутация: 51 [+] [-]

Откуда: Кузбасс

Пост 20-Май-2014 12:52

[Цитировать] 

--Adele 19-- Страна: Англия
Жанр: Indiepop, Jazz, Soul, Female Vocal
Год выпуска диска: 2008
Формат: FLAC (tracks)
Тип рипа: tracks
Битрейт аудио: lossless
Продолжительность: 00:43:38-Трэклист:
01. Daydreamer
02. Best For Last
03. Chasing Pavements
04. Cold Shoulder
05. Crazy For You
06. Melt My Heart To Stone
07. First Love
08. Right As Rain
09. Make You Feel My Love
10. My Same
11. Tired
12. Hometown Glory-Доп. информация: Даже не успев выпустить свой первый полноценный альбом, родившаяся в Лондоне певица Адель Лори Блу Эдкинс, профессионально известная просто как Adele, уже пользовалась огромной популярностью как у себя на родине, так и за рубежом. Синглы Hometown Glory и Chasing Pavements сегодня являются любимыми песнями многих людей разных возрастов, поскольку для своих девятнадцати лет артистка демонстрирует недюжинную мудрость, выражаемую в кажущейся простой лирике. Adele оказалась первым исполнителем, получившим награду Brit Awards в номинации Выбор Критиков(Critics’ Choice) прежде, чем вышел ее альбом, а британская пресса уже окрестила ее новой Эми Уайнхаус. Дебютный альбом 19, предлагающий главным образом песни о разбитом сердце и варьирующийся от джаза до поп-музыки – это, по всей вероятности, только начало блестящей карьеры Adele, поскольку голос этой молодой леди обладает огромнейшим потенциалом, и в последствии он будет реализовываться все больше и больше.-

Лог проверки качества

Exact Audio Copy V0.99 prebeta 3 from 28. July 2007
EAC extraction logfile from 31. January 2008, 14:36
Adele / 19
Used drive : LITE-ON DVD SOHD-16P9S Adapter: 1 ID: 0
Read mode : Secure
Utilize accurate stream : Yes
Defeat audio cache : Yes
Make use of C2 pointers : No
Read offset correction : 6
Overread into Lead-In and Lead-Out : No
Fill up missing offset samples with silence : Yes
Delete leading and trailing silent blocks : No
Null samples used in CRC calculations : Yes
Used interface : Installed external ASPI interface
Gap handling : Appended to previous track
Used output format : User Defined Encoder
Selected bitrate : 128 kBit/s
Quality : High
Add ID3 tag : No
Command line compressor : C:\Program Files\Exact Audio Copy\bin\flac.exe
Additional command line options : -8 -A tukey(0.25) -A gauss(0.1875) -b 4096 -V -T "artist=%a" -T "title=%t" -T "album=%g" -T "date=%y" -T "tracknumber=%n" -T "genre=%m" %s --sector-align
TOC of the extracted CD
Track | Start | Length | Start sector | End sector
---------------------------------------------------------
1 | 0:00.00 | 3:40.38 | 0 | 16537
2 | 3:40.38 | 4:18.38 | 16538 | 35925
3 | 7:59.01 | 3:30.38 | 35926 | 51713
4 | 11:29.39 | 3:11.65 | 51714 | 66103
5 | 14:41.29 | 3:28.03 | 66104 | 81706
6 | 18:09.32 | 3:23.68 | 81707 | 96999
7 | 21:33.25 | 3:10.21 | 97000 | 111270
8 | 24:43.46 | 3:17.26 | 111271 | 126071
9 | 28:00.72 | 3:32.03 | 126072 | 141974
10 | 31:33.00 | 3:15.49 | 141975 | 156648
11 | 34:48.49 | 4:18.64 | 156649 | 176062
12 | 39:07.38 | 4:31.17 | 176063 | 196404
Track 1
Filename C:\Adele - 19 [2008_flac]\01. Adele - Daydreamer (19).wav
Pre-gap length 0:00:02.00
Peak level 94.7 %
Track quality 99.9 %
Test CRC 87FD9ABB
Copy CRC 87FD9ABB
Track not present in AccurateRip database
Copy OK
Track 2
Filename C:\Adele - 19 [2008_flac]\02. Adele - Best For Last (19).wav
Peak level 98.8 %
Track quality 100.0 %
Test CRC DD09E758
Copy CRC DD09E758
Track not present in AccurateRip database
Copy OK
Track 3
Filename C:\Adele - 19 [2008_flac]\03. Adele - Chasing Pavements (19).wav
Peak level 100.0 %
Track quality 99.9 %
Test CRC A9C251B2
Copy CRC A9C251B2
Track not present in AccurateRip database
Copy OK
Track 4
Filename C:\Adele - 19 [2008_flac]\04. Adele - Cold Shoulder (19).wav
Pre-gap length 0:00:00.81
Peak level 100.0 %
Track quality 100.0 %
Test CRC 35C085CF
Copy CRC 35C085CF
Track not present in AccurateRip database
Copy OK
Track 5
Filename C:\Adele - 19 [2008_flac]\05. Adele - Crazy For You (19).wav
Peak level 94.4 %
Track quality 100.0 %
Test CRC 272B9F57
Copy CRC 272B9F57
Track not present in AccurateRip database
Copy OK
Track 6
Filename C:\Adele - 19 [2008_flac]\06. Adele - Melt My Heart To Stone (19).wav
Pre-gap length 0:00:00.34
Peak level 100.0 %
Track quality 100.0 %
Test CRC 6F287311
Copy CRC 6F287311
Track not present in AccurateRip database
Copy OK
Track 7
Filename C:\Adele - 19 [2008_flac]\07. Adele - First Love (19).wav
Peak level 98.8 %
Track quality 99.9 %
Test CRC 87693FC9
Copy CRC 87693FC9
Track not present in AccurateRip database
Copy OK
Track 8
Filename C:\Adele - 19 [2008_flac]\08. Adele - Right As Rain (19).wav
Peak level 98.8 %
Track quality 100.0 %
Test CRC 5828D62C
Copy CRC 5828D62C
Track not present in AccurateRip database
Copy OK
Track 9
Filename C:\Adele - 19 [2008_flac]\09. Adele - Make You Feel My Love (19).wav
Peak level 98.8 %
Track quality 100.0 %
Test CRC 9E44D24B
Copy CRC 9E44D24B
Track not present in AccurateRip database
Copy OK
Track 10
Filename C:\Adele - 19 [2008_flac]\10. Adele - My Same (19).wav
Pre-gap length 0:00:00.40
Peak level 98.8 %
Track quality 100.0 %
Test CRC 21C9B28E
Copy CRC 21C9B28E
Track not present in AccurateRip database
Copy OK
Track 11
Filename C:\Adele - 19 [2008_flac]\11. Adele - Tired (19).wav
Peak level 99.3 %
Track quality 100.0 %
Test CRC 9EA3FF89
Copy CRC 9EA3FF89
Track not present in AccurateRip database
Copy OK
Track 12
Filename C:\Adele - 19 [2008_flac]\12. Adele - Hometown Glory (19).wav
Pre-gap length 0:00:00.90
Peak level 99.4 %
Track quality 100.0 %
Test CRC 82CBFCF2
Copy CRC 82CBFCF2
Track not present in AccurateRip database
Copy OK
None of the tracks are present in the AccurateRip database
No errors occurred
End of status report
[Торрент-статистика]
[Профиль]  [ЛС] 
Показать сообщения:    
Ответить на тему

Текущее время: Сегодня 02:51

Часовой пояс: GMT + 4



Вы не можете начинать темы
Вы не можете отвечать на сообщения
Вы не можете редактировать свои сообщения
Вы не можете удалять свои сообщения
Вы не можете голосовать в опросах
Вы не можете прикреплять файлы к сообщениям
Вы не можете скачивать файлы