Черная метка: Приключения морпеха Сэма / Burn Notice: The Fall of Sam Axe (Джеффри Донован) [2011 г., комедия, драма, WEB-DL 720p] (FilmGate)

Ответить на тему
 
Автор
Сообщение

awk05 ®

Пол:

Стаж: 6 лет 1 месяц

Сообщений: 1351

Репутация: 275 [+] [-]

Откуда: Западная Украина Ривне

Пост 12-Апр-2014 00:05

[Цитировать] 

Черная метка: Приключения морпеха Сэма / Burn Notice: The Fall of Sam Axe-- Год выпуска: 2011
Страна: США | USA
Жанр: криминальная драма
Продолжительность: ~01:27:00
Перевод: Любительский (многоголосный, закадровый) FilmGate
Cубтитры: нет--Режиссёр: Джеффри Донован--В ролях: Брюс Кэмпбелл, Киле Санчез, РонРико Ли, Педро Бальмаседа, Чандра Уэст, Джон Дил, Джон Алес, Брендон О’Мэлли--Описание: Приквел «Черной метки» рассказывает о Сэме Эксе в Латинской Америке, о его миссии и проблесках военного прошлого.--Перевод: Николай
Роли озвучивали: lepestky, film45, zajiga
Работа с эффектами и звуком: Taliy
Подготовка видео: OgreS2009--Качество видео:BDRip 720p
Формат видео: MKV
Видео кодек: AVC (High@L3.1)
Аудио кодек: AC3
Видео: 1280x720 (16:9), 23,976 кадра/сек, 3891 Кбит/сек, (0.176 бит/пиксели*кадры)
Аудио 1: 2 канала Front: L R, 48,0 КГц, 192 Кбит/сек, 16 бит CBR[RUS]
Аудио 2: 6 каналов Front: L C R, Side: L R, LFE, 48,0 КГц, 384 Кбит/сек, 16 бит CBR[ENG]--

MI

General
Unique ID : 213041892902066000584414126763455439859 (0xA0466047C16B791DB6A4A4ECB1DE63F3)
Complete name : Z:\Burn.Notice.-.The.Fall.of.Sam.Axe.rus.eng.720p.web-dl.filmgate.tv.mkv
Format : Matroska
File size : 2.80 GiB
Duration : 1h 27mn
Overall bit rate : 4 557 Kbps
Encoded date : UTC 2011-07-09 06:15:17
Writing application : mkvmerge v4.5.0 ('Speed of Light') сборка от Feb 1 2011 02:10:32
Writing library : libebml v1.2.0 + libmatroska v1.1.0
Video
ID : 1
Format : AVC
Format/Info : Advanced Video Codec
Format profile : High@L3.1
Format settings, CABAC : No
Format settings, ReFrames : 2 frames
Format settings, GOP : M=2, N=27
Codec ID : V_MPEG4/ISO/AVC
Duration : 1h 27mn
Bit rate : 3 891 Kbps
Width : 1 280 pixels
Height : 720 pixels
Display aspect ratio : 16:9
Frame rate : 23.976 fps
Color space : YUV
Chroma subsampling : 4:2:0
Bit depth : 8 bits
Scan type : Progressive
Bits/(Pixel*Frame) : 0.176
Stream size : 2.39 GiB (85%)
Title : FilmGate.TV
Language : English
Color primaries : BT.709-5, BT.1361, IEC 61966-2-4, SMPTE RP177
Transfer characteristics : BT.709-5, BT.1361
Matrix coefficients : BT.709-5, BT.1361, IEC 61966-2-4 709, SMPTE RP177
Audio #1
ID : 2
Format : AC-3
Format/Info : Audio Coding 3
Mode extension : CM (complete main)
Codec ID : A_AC3
Duration : 1h 27mn
Bit rate mode : Constant
Bit rate : 192 Kbps
Channel(s) : 2 channels
Channel positions : Front: L R
Sampling rate : 48.0 KHz
Bit depth : 16 bits
Compression mode : Lossy
Stream size : 121 MiB (4%)
Title : Любительская (многоголосая, закадровая) FilmGate
Language : Russian
Audio #2
ID : 3
Format : AC-3
Format/Info : Audio Coding 3
Mode extension : CM (complete main)
Codec ID : A_AC3
Duration : 1h 27mn
Bit rate mode : Constant
Bit rate : 384 Kbps
Channel(s) : 6 channels
Channel positions : Front: L C R, Side: L R, LFE
Sampling rate : 48.0 KHz
Bit depth : 16 bits
Compression mode : Lossy
Stream size : 242 MiB (8%)
Title : Оригинал
Language : English

Скриншоты



_________________
[Торрент-статистика]
[Профиль]  [ЛС] 
Показать сообщения:    
Ответить на тему

Текущее время: Сегодня 16:24

Часовой пояс: GMT + 4



Вы не можете начинать темы
Вы не можете отвечать на сообщения
Вы не можете редактировать свои сообщения
Вы не можете удалять свои сообщения
Вы не можете голосовать в опросах
Вы не можете прикреплять файлы к сообщениям
Вы не можете скачивать файлы